//TJADB Project
TITLE:Dun Dun Doobie Zubah!
TITLEJA:ダン・ダン ドゥビ・ズバー!
SUBTITLE:--Dream5 & Motsu/Yo-kai Watch
SUBTITLEJA:「妖怪ウォッチ」より
BPM:160
WAVE:Dun Dun Doobie Zubah!.ogg
OFFSET:-1.708
DEMOSTART:39.184

COURSE:Oni
LEVEL:7
BALLOON:12
SCOREINIT:730
SCOREDIFF:203
#START
,
1000200010111020,
0022100022102000,
1000200022201110,
2220111022102000,
1000200010111020,
3434,
1000200010111020,
0022100022102000,
1000200010111020,
0022100022102000,
500000000000000000000000000000000008000000000000,
600000000000000000000000000000000008000000000000,
0022100022102000,
1000200010111020,
0022100022102000,
1000200010111020,
1110222011102220,
1000200022102000,
7008,
1011200022102010,
0011200022102000,
1111100022222000,
1111111111111111,
1,//25
#GOGOSTART
3000221000221040,
0000400011201120,
1000112011201120,
1120202000222020,
3000221000221040,
0000400011201120,
1000112011201120,
1120202000222000,
1011201110112000,
500000000000000000000000000000000008000000000000,
1011201110112000,
500000000000000000000000000000000008000000000000,
4000304000111000,
4000304000111000,
34343060,
000000000000000000000008000000000000000000000000,//41
#GOGOEND
30010112,
1000111011101020,
1022201010222000,
1000111011101020,
1022201010222000,
2022201020222010,
2022101022111000,
2012201022112000,
3333,//50
#GOGOSTART
3000221000221040,
0000400011201120,
2011201122102000,
1120202000222020,
3000221000221040,
04330000,//56
#GOGOEND
#END

COURSE:Hard
LEVEL:5
BALLOON:16,16
SCOREINIT:640
SCOREDIFF:190
#START
,
1000100022202000,
1000100022202000,
1143,
4000300022202000,
1000100022202000,
3344,
1000100022202000,
1000100022202000,
1000100022202000,
1000100011102000,
500000000000000000000000000000000008000000000000,
600000000000000000000000000000000008000000000000,
1000100022202000,
1000100022202000,
1000100011102000,
1000100022202000,
3434,
1000100011102000,
7,
8,
1000100022202000,
1000100011102000,
9009,
8,//25
#GOGOSTART
30430406,
000000000000000000000000000000000008000000000000,
1000111010201020,
1000202000222000,
30430406,
000000000000000000000000000000000008000000000000,
1000111010201020,
1000202000222000,
1000201110002000,
500000000000000000000000000000000008000000000000,
1110200011102020,
500000000000000000000000000000000008000000000000,
4000304000111000,
4000304000111000,
34343060,
000000000000000000000008000000000000000000000000,//41
#GOGOEND
3,
10121212,
1010001010222000,
10121212,
1010001010222000,
20212121,
2000201020222000,
2000201020222000,
3333,//50
#GOGOSTART
30430406,
000000000000000000000000000000000008000000000000,
1000111010201000,
1020202000222000,
30430406,
000000000000000000000008000000000000000000000000,//56
#GOGOEND
,
,
#END

COURSE:Normal
LEVEL:4
BALLOON:8,8,7
#START
,
1120,
1120,
1143,
4300,
1120,
3344,
,
1122,
1120,
1120,
500000000000000000000000000000000008000000000000,
600000000000000000000000000000000000000000000008,
,
1120,
1122,
1120,
3434,
,
7,
8,
1120,
1212,
9009,
8,//25
#GOGOSTART
30030006,
000000000000000000000000000000000008000000000000,
10011000,
10011020,
30030006,
000000000000000000000000000000000008000000000000,
10011000,
10011020,
1,
500000000000000000000000000000000008000000000000,
11,
500000000000000000000000000000000008000000000000,
40040000,
40040000,
3336,
000000000000000000000000000000000000000000000008,//41
#GOGOEND
,
1110,
10011000,
1110,
10011000,
2220,
20022000,
2220,
7008,//50
#GOGOSTART
30030006,
000000000000000000000000000000000008000000000000,
10011000,
10011020,
30030006,
000000000000000000000008000000000000000000000000,//56
#GOGOEND
,
,
#END

COURSE:Easy
LEVEL:2
BALLOON:6,6
#START
,
1,
1,
11,
1,
1,
11,
1,
1,
1,
1,
500000000000000000000000000000000008000000000000,
600000000000000000000000000000000000000000000008,
,
1100,
1,
1100,
11,
1100,
7,
8,
1100,
11,
9009,
8,//25
#GOGOSTART
30030006,
000000000000000000000000000008000000000000000000,
11,
1,
30030006,
000000000000000000000000000008000000000000000000,
11,
1,
1,
500000000000000000000000000008000000000000000000,
11,
500000000000000000000000000008000000000000000000,
3,
3,
6,
000000000000000000000008000000000000000000000000,//41
#GOGOEND
,
11,
1,
11,
1,
1,
1,
11,
3,//50
#GOGOSTART
30030006,
000000000000000000000000000008000000000000000000,
11,
1,
30030006,
000000000000000000000008000000000000000000000000,//56
#GOGOEND
,
,
#END
