//TJADB Project
TITLE:Charles
TITLEJA:シャルル
SUBTITLE:--Balloon feat. flower
SUBTITLEJA:バルーン feat.flower
BPM:145
WAVE:Charles.ogg
OFFSET:-1.845
DEMOSTART:53.981 //shinuchi:
8710/5800/3990/2550

COURSE:Oni
LEVEL:8
BALLOON:16,16
SCOREINIT:850,2610
SCOREDIFF:235
#START
20002220,
20002220,
20002220,
200000000500000000000008000000000000000000000000,
2020202202222022,
2020202200202220,
#BPMCHANGE 145.82
500000000000000000000008000000000000000000000000,
#BPMCHANGE 145
200000200100101020200000, //8
2101102012102000,
2101102011202000,
2101102012102000,
2101102011202011,
2101102012102000,
2101102011202000,
2101102012102011,
2101102011202000, //16
1022102010221020,
1022102011221020,
1022102010221020,
100000000000500000000008000000000000000000000000,
1020102102211021,
1021102211201020,
500000000000000000000008000000000000000000000000,
1022102011221212, //24
1020102012201020,
1020102012201020,
1020102012201020,
300000300000300222200200,
1020102012201020,
1020102012202000,
2010112010221010,
2, //32
#GOGOSTART
1201101012011020,
1201101012211020,
1201101012011020,
100000000000200000000000100000101010100000100100,
20212021,
7008,
0011202210112022,
1000102211112222, //40
1201101012011020,
1201101012211020,
1201101012011020,
100000000000200000000000100000101010100000100100,
20212021,
7008,
0011202210112022,
100222200000101020200000,
#GOGOEND
0, //49
#END

COURSE:Hard
LEVEL:6
BALLOON:15,13,13
SCOREINIT:1010,4210
SCOREDIFF:310
#START
2022,
2022,
2022,
500000000000000000000008000000000000000000000000,
20002220,
20002220,
#BPMCHANGE 145.82
500000000000000000000008000000000000000000000000,
#BPMCHANGE 145
20211020, //8
1101100010101000,
1101100010102000,
1101100010101000,
1101100010102000,
1101100010101000,
1101100010102000,
1101100010101000,
1101100010102000, //16
12121010,
12121020,
12121010,
500000000000000000000008000000000000000000000000,
1010101000111000,
2000202000222020,
500000000000000000000008000000000000000000000000,
2000200022202000, //24
12101210,
12102220,
12101210,
3330,
12101220,
12101220,
000000900000000000000000000000000000090000000000,
8, //32
#GOGOSTART
1001101010011010,
1001101010011000,
1001101010011010,
10201021,
20012001,
7008,
02021122,
3333, //40
1001101010011010,
1001101010011000,
1001101010011010,
10201021,
20012001,
7008,
02121122,
100200111100,
#GOGOEND
0, //49
#END

COURSE:Normal
LEVEL:5
BALLOON:10,9,9
SCOREINIT:1110,6360
SCOREDIFF:405
#START
22,
2022,
22,
500000000000000000000008000000000000000000000000,
20002220,
20002220,
#BPMCHANGE 145.82
500000000000000000000008000000000000000000000000,
#BPMCHANGE 145
2234, //8
10101110,
10101120,
10101110,
10101120,
10101110,
10101120,
10101110,
10101120, //1
1210,
10201110,
1210,
500000000000000000000008000000000000000000000000,
10101110,
20202220,
500000000000000000000008000000000000000000000000,
0012, //24
500000000000000000000000000000000008000000000000,
20202220,
20202220,
3330,
500000000000000000000000000000000008000000000000,
20202220,
000000900000000000000000000000000000090000000000,
8, //32
#GOGOSTART
1212,
100000000000100000000000500000000000000000000008,
01111011,
1111,
20012001,
7008,
02021010,
4334, //40
1212,
100000000000100000000000500000000000000000000008,
01111011,
1111,
20012001,
7008,
02102021,
1430,
#GOGOEND
0, //49
#END

COURSE:Easy
LEVEL:4
BALLOON:8,7,7
SCOREINIT:1000,10060
SCOREDIFF:630
#START
2,
22,
2,
500000000000000000000008000000000000000000000000,
2220,
2200,
#BPMCHANGE 145.82
500000000000000000000008000000000000000000000000,
#BPMCHANGE 145
0034, //8
1110,
1120,
1110,
1120,
1110,
1120,
1110,
1120, //16
1210,
1210,
1210,
500000000000000000000008000000000000000000000000,
1110,
2220,
500000000000000000000008000000000000000000000000,
0011, //24
4,
1112,
0,
3330,
4,
1112,
000000900000000000000000000000000000090000000000,
8, //32
#GOGOSTART
1210,
1110,
12,
1111,
12,
7008,
0,
4330, //40
1210,
1110,
12,
1111,
12,
7008,
0,
3430,
#GOGOEND
0, //49
#END
