//TJADB Project
TITLE:THE iDOLM@STER -Old Audio/Chart-
TITLEJA:THE IDOLM@STER
SUBTITLE:--Hiroto Sasaki/THE iDOLM@STER
SUBTITLEJA:旧音源・譜面 「アイドルマスター」より
BPM:165
WAVE:THE iDOLMASTER (old).ogg
OFFSET:-1.495
DEMOSTART:54.699 //AC7 and AniSpec Oni chart is
#N only.

COURSE:Oni
LEVEL:7
BALLOON:
SCOREINIT:760
SCOREDIFF:90
#START
500000000000000000000008000000100000000000000000,
1020100012102000,
1020100012102000,
12101121,
2220202020200000,
1020100012102000,
1020100012102000,
12101121,
1110201010200000, //9
#SECTION
#BRANCHSTART p,60,75
#N
1000200012102000,
11201120,
1000200012102000,
11201120,
11,
1111, //n15
#E
1010200012102010,
11211120,
1010200012102010,
11211120,
1414,
3333, //e15
#M
1010200012102012,
11211121,
1010200012102012,
11211121,
1414,
3333, //m15
#SECTION
#BRANCHSTART p,60,75
#N
1020100012102000,
1020100012102000,
12101121,
1110201010200000,
1020100012102000,
1020100012102000,
12101121,
1110201010200000, //n23
#E
1020100012102010,
1020100012102000,
12101121,
1110201010200000,
1020100012102010,
1020100012102000,
12101121,
1110201010200000, //e23
#M
1020100012102010,
1020100012102000,
12101121,
1110201010200000,
1020100012102010,
1020100012102000,
12101121,
1110201010200000, //m23
#SECTION
#BRANCHSTART p,60,75
#N
1000200012102000,
11201120,
1000200012102000,
11201120,
11,
1111, //n29
#E
1010201012102010,
11211120,
1010201012102010,
11211120,
1414,
3333, //e29
#M
1010201012102011,
11211120,
1010201012102011,
11211120,
1414,
3333, //m29
#SECTION
#BRANCHSTART p,60,75
#N
1010200011102010,
1010201011102010,
11201120,
1000100022202000,
1010200011102010,
1010201011102010,
11201120,
500000000000000000000000000000000008000000000000, //n37
#E
1010200011102010,
1010201011102010,
11201120,
1000100022202000,
1010200011102010,
1010201011102010,
11201120,
600000000000000000000008000000300000300000000000, //e37
#M
1010201011102010,
1110202011102010,
11211121,
1000100022202000,
1010201011102010,
1110202011102010,
11211120,
600000000000000000000008000000300000300000000000, //m37
#SECTION
#BRANCHSTART p,60,75
#N
#GOGOSTART
1000201012021020,
1010201012020220,
12020201,
0000200011221020,
1000201012021020,
1010201012020220,
12020201,
1110222011102220, //n45
#E
#GOGOSTART
1010201012021020,
1010201012021020,
12020201,
1000200011221020,
1010201012021020,
1010201012022220,
12020201,
1110222011102220, //e45
#M
#GOGOSTART
1010201012021020,
1010201112021020,
12020201,
1000200011221020,
1010201012021020,
1010201112022220,
12020201,
1110222011102220, //m45
#SECTION
#BRANCHSTART p,60,75
#N
1000201012021020,
1010201012020220,
12020201,
0000200011221020,
1000201012021020,
1010201012020220,
12020205,
000000000000000000000000000000000008000000000000, //n53
#GOGOEND
#E
1000201012021020,
1010201012021020,
12020201,
1000200011221020,
1000201012021020,
1010201012022220,
12020205,
000000000000000000000000000000000008000000000000, //e53
#GOGOEND
#M
1000201012021020,
1010201112021020,
12020201,
1000200011221020,
1000201012021020,
1010201112022220,
12020205,
000000000000000000000000000000000008000000000000, //m53
#GOGOEND
#SECTION
#BRANCHSTART p,60,75
#N
1000200012102010,
0020200011102220,
1000200012112010,
0020200011102220,
1000200012102010,
0020200011102220,
1000200012112010,
500000000000000000000000000000000008000000000000, //n61
#E
1000200012102010,
0020200011102220,
1000200012112010,
0020200011102220,
1000200012102010,
0020200011102220,
1000200012112010,
600000000000000000000008000000300000300000000000, //e61
#M
1000200012102010,
0020200011102220,
1000200012112010,
0020200011102220,
1000200012102010,
0020200011102220,
1000200012112010,
600000000000000000000008000000300000300000000000, //m61
#SECTION
#BRANCHSTART p,60,75
#N
#GOGOSTART
1000201012021020,
1010201012021020,
12020201,
1000100022202000,
1000201012021020,
1010201012021020,
12020201,
1110222011102220, //n69
#E
1010201012021020,
1010201012022220,
12020201,
1000100022202000,
1010201012021020,
1010201012022220,
12020201,
1110222011102220, //e69
#M
1010201112021020,
1010201012022220,
12020201,
1000100022202000,
1010201012021020,
1010201012022220,
12020201,
1111222211112222, //m69
#SECTION
#BRANCHSTART p,60,75
#N
1022002200220022,
1022002200220022,
1022002210220022,
10000112,
12020200,
12020200,
12020205,
000000000000000000000000000000000008000000000000, //n77
#GOGOEND
#E
1020102010201022,
1020102010201022,
12101210,
10000112,
12020200,
12020200,
12020206,
000000000000000000000000000000000008000000000000, //e77
#GOGOEND
#M
1020102210201022,
1020102210201022,
1020102210201020,
10000112,
12020200,
12020200,
12020206,
000000000000000000000000000000000008000000000000, //m77
#GOGOEND
#BRANCHEND
0,
0,
0,
0,
0,
0,
0, //84
#END

COURSE:Hard
LEVEL:5
BALLOON:8,8
SCOREINIT:540
SCOREDIFF:130
#START
500000000000000000000008000000100000000000000000,
12101120,
12101120,
12101121,
10210120,
12101120,
12101120,
12101121,
1000100011101000, //9
11201020,
11201120,
11201020,
11201120,
11,
1111, //15
12101120,
12101120,
12101121,
10210120,
12101120,
12101120,
12101121,
1000100011101000, //23
10201120,
11201120,
10201120,
11201120,
11,
1111, //29
11202211,
11202211,
11202211,
10001012,
11202211,
11202211,
11211120,
500000000000000000000000000000000008000000000000, //37
#GOGOSTART
1000201011102000,
1010201011102000,
11020201,
00000112,
1000201011102000,
1010201011102000,
11020207,
08, //45
1000201011102000,
1010201011102000,
11020201,
00000112,
1000201011102000,
1010201011102000,
11020205,
000000000000000000000000000000000008000000000000, //53
#GOGOEND
10201121,
0020200011101000,
10201121,
0020200022202000,
10201121,
0020200011101000,
10201121,
500000000000000000000000000000000008000000000000, //61
#GOGOSTART
1000201011102000,
1010201011102000,
11020201,
00000112,
1000201011102000,
1010201011102000,
11020207,
08, //69
1011,
1011,
1111,
10000112,
12020200,
12020200,
12020205,
000000000000000000000000000000000008000000000000, //77
#GOGOEND
0,
0,
0,
0,
0,
0,
0, //84
#END

COURSE:Normal
LEVEL:5
BALLOON:6,6
SCOREINIT:660
SCOREDIFF:210
#START
500000000000000000000008000000000000000000000000,
10110000,
10110020,
10001110,
0202,
10110000,
10110020,
1011,
0, //9
10202200,
11,
10202200,
11,
11,
1111, //15
10110000,
10110020,
10001110,
0,
10110000,
10110020,
1011,
0, //23
10202200,
11,
10202200,
11,
11,
1111, //29
10201100,
10202200,
1202,
1200,
10201100,
10202200,
1202,
500000000000000000000000000000000008000000000000, //37
#GOGOSTART
11010100,
11010100,
11010101,
0,
11020200,
11020200,
11020207,
08, //45
11010100,
11010100,
11010101,
0,
11020200,
11020200,
11020205,
000000000000000000000000000000000008000000000000, //53
#GOGOEND
10201100,
02201000,
10201100,
02201000,
10201100,
02201000,
10201100,
500000000000000000000000000000000008000000000000, //61
#GOGOSTART
11010100,
11010100,
11010101,
0,
11020200,
11020200,
11020207,
08, //69
1011,
1011,
11,
1,
11020200,
11020200,
11020205,
000000000000000000000000000000000008000000000000, //77
#GOGOEND
0,
0,
0,
0,
0,
0,
0, //84
#END

COURSE:Easy
LEVEL:4
BALLOON:4,4
SCOREINIT:640
SCOREDIFF:180
#START
500000000000000000000008000000000000000000000000,
1100,
1100,
10001110,
0200,
1100,
1100,
1011,
0, //9
0202,
11,
0202,
11,
11,
1110, //15
1100,
1100,
10001110,
0200,
1100,
1100,
1011,
0, //23
0202,
11,
0202,
11,
11,
1110, //29
1011,
12,
1011,
12,
1011,
12,
1011,
500000000000000000000000000000000008000000000000, //37
#GOGOSTART
1012,
1012,
1011,
1,
1012,
1012,
10001007,
08, //45
1012,
1012,
1011,
1,
1012,
1012,
10001005,
000000000000000000000000000000000008000000000000, //53
#GOGOEND
1,
0202,
1,
0202,
1,
0202,
1,
500000000000000000000000000000000008000000000000, //61
#GOGOSTART
1012,
1012,
1011,
1,
1012,
1012,
10001007,
08, //69
1012,
1012,
1011,
1,
1012,
1012,
10001005,
000000000000000000000000000000000008000000000000, //77
#GOGOEND
0,
0,
0,
0,
0,
0,
0, //84
#END
