//TJADB Project
TITLE:Assault BGM1
TITLEJA:アサルト BGM1
SUBTITLE:--Kazuo Noguchi/Assault
BPM:114.95
WAVE:Assault BGM1.ogg
OFFSET:-2.337
DEMOSTART:2.348

COURSE:Edit
LEVEL:9
BALLOON:20,2
SCOREINIT:450
SCOREDIFF:110
#START
#MEASURE 5/4
12101120121212112121,
12101120121012102101,
12101120121212112121,
12101120121112102101,
12121120121212112121,
12111220121112102121,
12121120121212112121,
12121120121212112212,
12121120121212112121,
12121120121212112121,
12121120121212112121,
12121120121212112121,
12121120121212112121,
12121120121212112121,
12121120121212112121,
12121120121212112211,
#MEASURE 4/4
2002100121011221,
2112100011221212,
1002100010021020,
1222122210121200,
1122122121121211,
2122121212210002,
1121211212222211,
2122121212210003,
#GOGOSTART
000200200100200100500000000000000000000008000000,
0020121212221121,
2222121212222211,
2122121212210003,
0122122120221212,
2122102212012003,
0211211122222111,
0100201012010001,
200202020200200202020200200202020200200202020200,
200202020200200202020200200202020200200202020100,
200200202020200202020200200202020200200202020200,
200200202020202020202020200200202020202020200700,
0000000000008002,
000000020000000020000000020000000000000000202020,
200200000200000200200200200200202020202020200200,
200200202020202020202020100200000300000000000000,
#GOGOEND
#MEASURE 5/4
12121120121212112121,
12121120121212112121,
12121120121212112121,
12121120121212112121,
12121120121212112121,
12121120121212112121,
12121122121212112121,
100200100200100100200200100200100200100200100100200200100708,
#END

COURSE:Oni
LEVEL:8
SCOREINIT:610
SCOREDIFF:163
#START
#MEASURE 5/4
12101120121012112021,
10002000001020101201,
12101120212021121022,
10002000001020101201,
12101120121012112021,
10002000001020101201,
12101120212021121022,
12001210120021112212,
21202210212021221012,
20002120210010202102,
21202210121012212011,
20002120210010202102,
21202210212021221012,
20002120210010202102,
21202210121012212011,
21002120210012221120,
#MEASURE 4/4
3003000010001200,
3003000011111110,
1002100010021010,
2111211030303000,
3000201120000011,
0100201010020003,
0100201120000011,
0100201010020003,
#GOGOSTART
0110201120000012,
0100201010020003,
0110201120000012,
0100201010020003,
0122122120000012,
0100201010020003,
0211122120000012,
0100201010020003,
0122122120020012,
0100201010020003,
0211211120020012,
0100201010020001,
1210211120020012,
0100201010020001,
1210211120020012,
1221201030030000,
#GOGOEND
#MEASURE 5/4
12101120121121121121,
12001210121020101201,
12101120121121121121,
12001210121020101201,
12101120121121121121,
12001210121020101201,
12101120121121121121,
12001210121020112212,
#END

COURSE:Hard
LEVEL:6
SCOREINIT:570
SCOREDIFF:170
#START
#MEASURE 5/4
11102000111020102001,
10002000001020101100,
11102000121020102001,
10002000001020101100,
11102000111020102001,
10002000001020101100,
11102000121020102001,
1020012100,
12102000121020102001,
10002000001020101200,
12102000212010201001,
10002000001020101200,
12102000121020102001,
10002000001020101200,
12102000212020102001,
1020012100,
#MEASURE 4/4
3003000000000000,
300000000300000000000000500000000000000008000000,
3003000030030000,
30303330,
1000101110000011,
0100201010020003,
0000101110000011,
0100101010020003,//24
#GOGOSTART
0000101120000011,
0100201010010003,
0000101120000011,
0100101010010003,
0000101120000012,
0100101010020003,
0000101120000012,
0100201010010003,
0020101120000012,
0100201010020003,
0020101120000012,
0100101010020003,
0111101120000012,
0100101010020003,
0111101120000010,
500000000000000000000000000000000008000000000000,//40
#MEASURE 5/4
#GOGOEND
12102000121020102001,
10002000001020101200,
12102000212010201001,
10002000001020101200,
12102000121020102001,
10002000001020101200,
12102000212020102001,
10002000001020111111,
,
#END

COURSE:Normal
LEVEL:5
BALLOON:66,4
#START
#MEASURE 5/4
1020112020,
1020012000,
1020112020,
1020012000,
1020112020,
1020012000,
1020112010,
1020012000,
1020112021,
1020012101,
1020112021,
1020012100,
1020112021,
1020012101,
1020112021,
1020012100,
#MEASURE 4/4
3003000000000000,
3003000000000000,
3003000030030000,
30303330,
10201001,
0000100010000003,
00201001,
0000200020000003,//24
#GOGOSTART
00201001,
0000100010010003,
00201001,
0000200020020003,
00201001,
0000100010010003,
00201001,
0000200020020000,
7,
,
,
0000000080000003,
00201001,
0000201010010003,
00201001,
500000000000000000000000000000000008000000000000,//40
#MEASURE 5/4
#GOGOEND
1020112021,
1020012101,
1020112021,
1020012100,
1020112021,
1020012101,
1020112021,
1020012700,
8,
#END

COURSE:Easy
LEVEL:3
BALLOON:31,3
#START
#MEASURE 5/4
12101,
1,
12101,
1,
12101,
1,
12101,
1,
12101,
12000,
12101,
12020,
12101,
12000,
12101,
12020,
#MEASURE 4/4
3,
3,
33,
3330,
1110,
1000000010000003,
0220,
1000000020000003,//24
#GOGOSTART
0110,
1000000010000003,
0220,
1000000020000003,
0110,
1000000010000003,
0220,
12,
7,
,
,
0000000080000003,
0210,
1000000020000003,
0210,
500000000000000000000000008000000000000000000000,//40
#MEASURE 5/4
#GOGOEND
12101,
10020,
12101,
10020,
12101,
10020,
12101,
1000002700,
8,
#END
