//TJADB Project
TITLE:Samba Alegria
TITLEJA:サンバ アレグリーア
SUBTITLE:--Ayako Saso (Sampling Masters) feat. GOTANDA AMIGOS
SUBTITLEJA:日替り無料
BPM:138
WAVE:Samba Alegria.ogg
OFFSET:-2.005
DEMOSTART:15.437

COURSE:Edit
LEVEL:9
BALLOON:4,4,4,4,4,4,4
SCOREINIT:420
SCOREDIFF:90
#START
30000003,
30000003,
30003003,
3004040400000000,
30000003,
30000003,
30003000,
111111100400,
1112010101011120,
1122010101011220,
1101201111012011,
100100000100200000100000100010001000200000100000,
1112010101011120,
1122011020112201,
1020112012011120,
100100000100000100100000200020002000200000200000,
1112010101011120,
1122010101011220,
1101201111012011,
100100000100200000100000100010001000200000100000,
1112010101011120,
1122011020112201,
1020112012011120,
500000000000000000000000000008000000000000000000,
3001010120202011,
200200000100100100200000101010100000300000000000,
3002020210101022,
100100000200200200100000202020200000400000000000,
3001010120202011,
200200000100100100200000101010100000300000000000,
4002020211221122,
111100400111100400000000,//32
#GOGOSTART
1121012101210221,
1220102101207080,
1121012101210221,
1220102101227080,
1112201121120210,
1112201121120210,
1202221110120210,
1202212202217080,
1121012101210221,
1220102101207080,
1121012101210221,
1220102101227080,
1112201121120210,
1202221170807080,
111100111100,
101010101010100111100400,
111100111100,
101010101010222200400000,
111010100000111010100000,
111010101010100111100400,
111010100100111010100100,
111010101010222200400000,//54
#GOGOEND
1121010101012110,
1221010101012210,
1202102112021012,
200100000100200000200000200010001000200000100000,
1121010101012110,
1221012010122101,
1020112012011120,
100200000200000200100000200010001000200000100000,
1121010101012110,
1221010101012210,
1202102112021012,
200100000100200000200000200010001000200000100000,
1121010101012110,
1221012010122101,
1020112011211201,
1020112011211201,
1120112112112201,
1120112112112201,
100000200100200200100000100200100200100000101010,
100000200100200200100000200100200100200000202010,
100000200100200200100000100200100200100000101010,
1004004000000000,
#END

COURSE:Oni
LEVEL:7
BALLOON:12
SCOREINIT:440
SCOREDIFF:110
#START
30000003,
30000003,
30000003,
3003030300010110,
3020210102022030,
3020210102022030,
3020210030022010,
200020001000100010002000200000000100100000200000,
1001201010012010,
1001201010012010,
1002201010022010,
1002201010012000,
1001201010012010,
1002002010012010,
1002201010022010,
1002201010012010,
1001201012012010,
1001201012112010,
1002201010022010,
1002201011012000,
1001201012012010,
1002002010012010,
1002201010022010,
1002020120011010,
4002020110102000,
3020210122101000,
4002010210102000,
3020210122101000,
4002020110102000,
3020210122111110,
33,
1110111011111110,//32
#GOGOSTART
1001201010012010,
1020102101202010,
1001201010012010,
1020102101201020,
1001201010012010,
1001201010012010,
1001201010012010,
1202201202022010,
1001201221012021,
1021102110202012,
1001201221012021,
1021102112021012,
1001201221012021,
1001201221012010,
111100111100,
101010101010100011100100,
111100111100,
100010001000100010001000100010001000500008000000,
122100122100,
102020102020100011100200,
122100122100,
100020002000100020002000100020002000500008000000,//54
#GOGOEND
1001201010012010,
1001201010012010,
1002201010022010,
1002201010012000,
1001201010012010,
1002002010012010,
1002201010022010,
1002201010012010,
1001201012012010,
1001201012112010,
1002201010022010,
1002201011012000,
1001201012012010,
1002002010012010,
1002201010022010,
7000000000801020,
1002201010022010,
1002201010022010,
3020210102022030,
3020210102022030,
3020210102022030,
3003003000000000,
#END

COURSE:Hard
LEVEL:6
BALLOON:9,9,13,9
#START
30000003,
30000003,
30000003,
3003030300000000,
30000003,
30000003,
33,
3330,
1001101010022000,
1001001010000000,
1002201010022010,
1001000000000000,
1001101010022010,
1001002010000000,
1002201010022010,
500000000000000000000080000000000000000000000000,
1001101010022000,
1001101010022000,
1002201010022010,
1001000000000000,
1001101010022010,
1001002010000000,
1002201010022010,
500000000000000000000000000080000000000000000000,
2002020220202000,
3030300011101000,
2002020220202000,
3030300011101000,
2002020220202000,
3030300011101000,
33,
3330,//32
#GOGOSTART
1002201010011010,
02020220,
1002201010011020,
7008,
1002200010022010,
1002200010022010,
1002200010022010,
500000000000000000000000000000000008000000000000,
1002201010011010,
02020220,
1002201010011020,
7008,
1002200010022010,
1002200010022010,
9009,
8,
111100111100,
3333,
111100111100,
3333,
33,
3330,//54
#GOGOEND
1001101010022000,
1001001010000000,
1002201010022010,
1001000000000000,
1001101010022010,
1001002010000000,
1002201010022010,
500000000000000000000008000000000000000000000000,
1001101010022000,
1001101010022000,
1002201010022010,
1001000000000000,
1001101010022010,
1001002010001020,
1002201010022010,
700000000000000800000000,
1002201010022010,
1002201010022010,
30000003,
30000003,
30003003,
3003003000000000,
,
,
,
#END

COURSE:Normal
LEVEL:6
BALLOON:9,9,13,9
#START
30000003,
30000003,
30000003,
3330,
30000003,
30000003,
33,
3330,
1001100010000000,
1001100010000000,
1002200010002000,
1,
1001100010000000,
1001100010000000,
1002200010002000,
500000000000000000000080000000000000000000000000,
1001100010000000,
1001100010000000,
1002200010002000,
1,
1001100010000000,
1001100010000000,
1002200010002000,
500000000000000000000000000080000000000000000000,
40004440,
3333,
40004440,
3333,
40004440,
3333,
33,
3330,//32
#GOGOSTART
1001100010011000,
500000000000000000000000000000000008000000000000,
1001100010011000,
7008,
1002200010000000,
1002200010000000,
1002200010022000,
1,
1001100010011000,
500000000000000000000000000000000008000000000000,
1001100010011000,
7008,
1002200010000000,
1002200010022000,
9009,
8,
33,
3330,
33,
3330,
33,
3330,//54
#GOGOEND
1001100010000000,
1001100010000000,
1002200010022000,
1,
1001100010000000,
1001100010000000,
1002200010022000,
500000000000000000000008000000000000000000000000,
1001100010000000,
1001100010000000,
1002200010022000,
1,
1001100010000000,
1001100010000000,
1002200010022000,
700000000000000800000000,
1011,
11,
30000003,
30000003,
30003003,
3003003000000000,
,
,
,
#END

COURSE:Easy
LEVEL:4
BALLOON:7,7,12,7
#START
3,
3,
3,
3330,
30000003,
30000003,
33,
3330,
1110,
1110,
1212,
1,
1110,
1110,
1212,
500000000000000000000008000000000000000000000000,
1110,
1110,
1212,
1,
1110,
1110,
1212,
500000000000000000000000000008000000000000000000,
4,
3330,
4,
3330,
4,
3330,
33,
3330,//32
#GOGOSTART
1212,
500000000000000000000000000000000800000000000000,
1212,
7008,
1210,
1210,
1212,
1,
1212,
500000000000000000000000000000000800000000000000,
1212,
7008,
1210,
1212,
9009,
8,
33,
3330,
33,
3330,
33,
3330,//54
#GOGOEND
1110,
1110,
1212,
1,
1110,
1110,
1212,
500000000000000000000008000000000000000000000000,
1110,
1110,
1212,
1,
1110,
1110,
1212,
700000000000000800000000,
1011,
11,
30000003,
30000003,
30000003,
30030000,
,
,
,
#END
