//TJADB Project
TITLE:Jotei ~Imbiratuula~
TITLEJA:女帝 ~インバラトゥーラ~
SUBTITLE:--Hisui feat. Saori Terai
SUBTITLEJA:
BPM:244
WAVE:Jotei Imbiratuula.ogg
OFFSET:-2.000
DEMOSTART:59.361 //Shinuchi:
5410/3360/1860/1460

COURSE:Oni
LEVEL:9
BALLOON:10,14,16
SCOREINIT:510,1530
SCOREDIFF:123
#START
#MEASURE 5/4
#SCROLL 0.55
1011012020,
10001010001120201010,
1011012020,
10001010001120102010,
1011012020,
10001010001120002000,
1011012020,
#MEASURE 3/4
100010100011,
#MEASURE 4/4
21221222, //9
#MEASURE 5/4
1021021020,
1021021120,
1021021020,
10001020002220201020, //13
0110220110,
1011022011,
700000000000000000000000000000000000080000000000000000000000,
#MEASURE 3/4
102102,
#MEASURE 4/4
21122111, //18
#MEASURE 6/4
#BPMCHANGE 220
#SCROLL 0.61
1
#SCROLL 0.55
0,
500000000000000000000000000000000000000000000000000008000000000000000000,
3,
708,
3,
111,
300000000000000000000022,
202102010221, //26
#BPMCHANGE 244
101202020101,
101202020101,
101202020101,
102102010300,
101202020102,
101202020121,
101202020102,
102102010101, //34
101020110102,
101020100022,
101020110102,
202020220300,
101020110102,
102020201101,
500000000000000000000000000000000000000000000000000008000000000000000000,
111000101020102010201010, //42
#MEASURE 7/4
#GOGOSTART
10102011011120,
10102012020120,
10102011011102,
20202221010300,
10102011011102,
10021021020122,
10102012020201,
10102112020211, //50
10102011011120,
10102012020120,
10102011011102,
10112112112211,
10102011011120,
10102012020120,
7000080,
10012112022110,
#GOGOEND
1022202010101010000000000000, //59
#MEASURE 5/4
1002011020,
1002011020,
10000020001120001000,
20000020002210002000,
1002011020,
10000020001000221010,
1002011020,
1112011120, //67
#MEASURE 7/4
10300000000202,
1300022,
#MEASURE 6/4
3,
110000000000,
101000002000000000000011,
100002020201,
100101022201,
100102022102, //75
#BPMCHANGE 240
100102
#BPMCHANGE 234
122102,
#BPMCHANGE 228
11
#BPMCHANGE 220
33, //77
#MEASURE 7/4
#BPMCHANGE 244
#GOGOSTART
6,
000000000000000000000000000000000000000000000000000000000008000000000000000000000000,
10101021010201,
1000100020101020002000222020,
1000222000111000222000111000,
1000222011100022201110222000,
10212012020111,
10202001030300, //85
10102011011120,
10102012020120,
10202122020101,
10122112112211,
1000001120000010001000201000,
10102222010102,
10210010210112,
1110001020100010001010202000, //93
#GOGOEND
#MEASURE 8/4
#BPMCHANGE 204.5
#SCROLL 0.66
3
#SCROLL 0.55
0, //94
#MEASURE 9/8
#BPMCHANGE 210
#SCROLL 0.51
1
#SCROLL 0.53
1
#BPMCHANGE 226
1
#SCROLL 0.58
2
#BPMCHANGE 248
#SCROLL 0.57
2
#SCROLL 0.6
1
#SCROLL 0.62
1
#BPMCHANGE 254
#SCROLL 0.63
1
#SCROLL 0.66
2, //95
#BPMCHANGE 260
#SCROLL 0.68
1
#SCROLL 0.72
1
#BPMCHANGE 272
1
#SCROLL 0.75
2
#BPMCHANGE 278
#SCROLL 0.77
2
#SCROLL 0.81
1
#SCROLL 0.85
1
#BPMCHANGE 282
#SCROLL 0.89
1
#SCROLL 0.94
2, //96
#BPMCHANGE 284
#SCROLL 1
1
#SCROLL 1.07
1
#SCROLL 1.14
1
#SCROLL 1.23
2
#BPMCHANGE 290
#SCROLL 1.32
2
#SCROLL 1.45
1
#SCROLL 1.6
1
#SCROLL 1.75
1
#SCROLL 1.91
2, //97
#MEASURE 4/4
#BPMCHANGE 264
#SCROLL 2.27
2,
#BARLINEOFF
0,
0,
0, //101
#END

COURSE:Hard
LEVEL:8
BALLOON:8,12,13
SCOREINIT:530,1970
SCOREDIFF:130
#START
#MEASURE 5/4
#SCROLL 0.55
1011011000,
1011012000,
1011011000,
1011012020,
1011011000,
1011012000,
1011011000,
#MEASURE 3/4
101102,
#MEASURE 4/4
22222222, //9
#MEASURE 5/4
1011011010,
1011011020,
1011011010,
1011022222,
0110220110,
2011022010,
700000000000000000000000000000000000080000000000000000000000,
#MEASURE 3/4
101100,
#MEASURE 4/4
22221111, //18
#MEASURE 6/4
#BPMCHANGE 220
#SCROLL 0.61
1
#SCROLL 0.55
0,
500000000000000000000000000000000000000000000000000008000000000000000000,
3,
708,
3,
111,
3,
500000000000000000000000000000000000000000000000000008000000000000000000, //26
#BPMCHANGE 244
101102010100,
101102010100,
101102010100,
101102020200,
101102010100,
101102010100,
101102010100,
101102020200,
101020110100,
112100,
101020110100,
222200,
101020110100,
112100,
500000000000000000000000000000000000000000000000000008000000000000000000,
100110202020, //42
#MEASURE 7/4
#GOGOSTART
10102011010010,
10102011010010,
10102011010100,
20202001010100,
10102011010100,
10011011020010,
10102011010100,
10010012020200,
10102011010010,
10102011010010,
10102011010100,
20202001010100,
10102011010010,
10102011010010,
7000080,
10011102022020,
#GOGOEND
3, //59
#MEASURE 5/4
1001011020,
1001011010,
1001011020,
2002022020,
1001011020,
1001011010,
1001011020,
1001001110, //67
#MEASURE 7/4
3300000,
3300000,
#MEASURE 6/4
3,
110000000000,
110020000000,
000002020200,
100101020200,
100101020100, //75
#BPMCHANGE 240
100102
#BPMCHANGE 234
120100,
#BPMCHANGE 228
11
#BPMCHANGE 220
33, //77
#MEASURE 7/4
#BPMCHANGE 244
#GOGOSTART
6,
000000000000000000000000000000000000000000000000000000000008000000000000000000000000,
10101011010100,
10101022020200,
0000220000110000220000110000,
0000220011000022001100220000,
10110010110220,
10101004040400,
10102011010010,
10102011010010,
10102011010100,
10111102022222,
1000001110000000200000002000,
10102222010101,
10002001010110,
1100001010100020001010101000, //93
#GOGOEND
#MEASURE 8/4
#BPMCHANGE 204.5
#SCROLL 0.66
3
#SCROLL 0.55
0, //94
#MEASURE 9/8
#BPMCHANGE 210
#SCROLL 0.51
1
#SCROLL 0.53
1
#BPMCHANGE 226
1
#SCROLL 0.58
1
#BPMCHANGE 248
#SCROLL 0.57
1
#SCROLL 0.6
1
#SCROLL 0.62
1
#BPMCHANGE 254
#SCROLL 0.63
1
#SCROLL 0.66
1, //95
#BPMCHANGE 260
#SCROLL 0.68
2
#SCROLL 0.72
2
#BPMCHANGE 272
2
#SCROLL 0.75
2
#BPMCHANGE 278
#SCROLL 0.77
2
#SCROLL 0.81
2
#SCROLL 0.85
2
#BPMCHANGE 282
#SCROLL 0.89
2
#SCROLL 0.94
2, //96
#BPMCHANGE 284
#SCROLL 1
1
#SCROLL 1.07
1
#SCROLL 1.14
1
#SCROLL 1.23
1
#BPMCHANGE 290
#SCROLL 1.32
1
#SCROLL 1.45
1
#SCROLL 1.6
1
#SCROLL 1.75
1
#SCROLL 1.91
1, //97
#MEASURE 4/4
#BPMCHANGE 264
#SCROLL 2.27
2,
#BARLINEOFF
0,
0,
0, //101
#END

COURSE:Normal
LEVEL:7
BALLOON:11,7,8
SCOREINIT:740,3640
SCOREDIFF:210
#START
#MEASURE 5/4
#SCROLL 0.55
1011011000,
1,
1011011000,
1,
2022022000,
2,
2022022000,
#MEASURE 3/4
2,
#MEASURE 4/4
3,
#MEASURE 5/4
1011011000,
2,
1011011000,
2,
1011011000,
7,
000000000000000000000000080000000000000000000000000000000000,
#MEASURE 3/4
101100,
#MEASURE 4/4
1, //18
#MEASURE 6/4
#BPMCHANGE 220
#SCROLL 0.61
3
#SCROLL 0.55
0,
500000000000000000000000000000000000000008000000000000000000000000000000,
3,
708,
3,
111,
5,
000000000000000000000000000000000008000000000000000000000000000000000000, //26
#BPMCHANGE 244
101101010000,
1,
101101010000,
2,
101101010000,
1,
101101010000,
2,
111100,
111100,
111100,
222200,
111100,
111100,
500000000000000000000000000000000000000008000000000000000000000000000000,
13, //42
#GOGOSTART
#MEASURE 7/4
10001001010100,
10001001010100,
10001001010100,
1,
10001001010100,
10001001010100,
500000000000000000000000000000000000000000000000000008000000000000000000000000000000,
3,
10001001010100,
10001001010100,
10001001010100,
1,
10001001010100,
10001001010100,
7000000000000000000800000000,
10011101011110,
#GOGOEND
0, //59
#MEASURE 5/4
1001001000,
1001001000,
1001001000,
2,
1001001000,
1001001000,
1001001000,
2, //67
#MEASURE 7/4
3300000,
3300000,
#MEASURE 6/4
3,
0,
0,
0,
1100,
2200, //75
#BPMCHANGE 240
11
#BPMCHANGE 234
00,
#BPMCHANGE 228
11
#BPMCHANGE 220
33, //77
#MEASURE 7/4
#BPMCHANGE 244
#GOGOSTART
6,
000000000000000000000000000000000000000000000000000008000000000000000000000000000000,
10001001010100,
10001001010100,
20002002020200,
20002002020200,
20002002020200,
4,
10001001010100,
10001001010100,
10001001010100,
1,
00003001010100,
10001001010100,
500000000000000000000000000000000000000000000000000008000000000000000000000000000000,
10011101011110, //93
#GOGOEND
#MEASURE 8/4
#BPMCHANGE 204.5
#SCROLL 0.66
0
#SCROLL 0.55
0, //94
#MEASURE 9/8
#BPMCHANGE 210
#SCROLL 0.51
1
#SCROLL 0.52
0
#BPMCHANGE 226
#SCROLL 0.51
1
#SCROLL 0.54
0
#BPMCHANGE 248
#SCROLL 0.52
1
#SCROLL 0.53
0
#SCROLL 0.55
1
#BPMCHANGE 254
#SCROLL 0.54
0
#SCROLL 0.56
0, //95
#BPMCHANGE 260
1
#SCROLL 0.58
0
#BPMCHANGE 272
#SCROLL 0.57
1
#SCROLL 0.59
0
#BPMCHANGE 278
1
#SCROLL 0.61
0
#SCROLL 0.62
1
#BPMCHANGE 282
#SCROLL 0.64
0
#SCROLL 0.67
0, //96
#BPMCHANGE 284
#SCROLL 0.7
1
#SCROLL 0.74
0
#SCROLL 0.77
1
#SCROLL 0.82
0
#BPMCHANGE 290
#SCROLL 0.87
1
#SCROLL 0.94
0
#SCROLL 1.02
1
#SCROLL 1.1
0
#SCROLL 1.18
0, //97
#MEASURE 4/4
#BPMCHANGE 264
#SCROLL 1.38
1,
#BARLINEOFF
0,
0,
0, //101
#END

COURSE:Easy
LEVEL:4
BALLOON:5,10,6
SCOREINIT:630,6010
SCOREDIFF:198
#START
#MEASURE 5/4
#SCROLL 0.55
1,
1,
1,
1,
2,
2,
2,
#MEASURE 3/4
2,
#MEASURE 4/4
1, //9
#MEASURE 5/4
11000,
11000,
11000,
22000,
11000,
11000,
11000,
#MEASURE 3/4
220,
#MEASURE 4/4
2, //18
#MEASURE 6/4
#BPMCHANGE 220
#SCROLL 0.61
3
#SCROLL 0.55
0,
500000000000000000000000000000000000000008000000000000000000000000000000,
3,
700000080000,
3,
3,
5,
000000000000000000000000000000000008000000000000000000000000000000000000, //26
#BPMCHANGE 244
1100,
1100,
1100,
2200,
1100,
1100,
1100,
2200,
110100,
12,
110100,
12,
110100,
12,
110100,
3, //42
#MEASURE 7/4
#GOGOSTART
1010100,
1010100,
1010100,
2,
1010000,
1001000,
7,
8,
1010100,
1010100,
1010100,
2,
1010100,
1010100,
70000000080000,
13,
#GOGOEND
0, //59
#MEASURE 5/4
1001001000,
1,
1001001000,
1,
1001001000,
1,
2002002000,
2, //67
#MEASURE 7/4
3300000,
3300000,
#MEASURE 6/4
3,
0,
0,
0,
1,
2, //75
#BPMCHANGE 240
1
#BPMCHANGE 234
1,
#BPMCHANGE 228
11
#BPMCHANGE 220
10, //77
#MEASURE 7/4
#BPMCHANGE 244
#GOGOSTART
6,
000000000000000000000000000000000000000000000000000008000000000000000000000000000000,
1111000,
2222000,
1111000,
1111000,
1111000,
3,
1010100,
1010100,
1010100,
2,
0030100,
1010100,
5,
000000000000000000000000000000000000000000000000000000000000000000000000000000000008, //93
#GOGOEND
#MEASURE 8/4
#BPMCHANGE 204.5
#SCROLL 0.66
0
#SCROLL 0.55
0, //94
#MEASURE 9/8
#BPMCHANGE 210
#SCROLL 0.51
1
#SCROLL 0.52
0
#BPMCHANGE 226
#SCROLL 0.51
0
#SCROLL 0.54
0
#BPMCHANGE 248
#SCROLL 0.52
0
#SCROLL 0.53
0
#SCROLL 0.55
0
#BPMCHANGE 254
#SCROLL 0.54
0
#SCROLL 0.56
0, //95
#BPMCHANGE 260
1
#SCROLL 0.58
0
#BPMCHANGE 272
#SCROLL 0.57
0
#SCROLL 0.59
0
#BPMCHANGE 278
0
#SCROLL 0.61
0
#SCROLL 0.62
0
#BPMCHANGE 282
#SCROLL 0.64
0
#SCROLL 0.67
0, //96
#BPMCHANGE 284
#SCROLL 0.7
1
#SCROLL 0.74
0
#SCROLL 0.77
0
#SCROLL 0.82
0
#BPMCHANGE 290
#SCROLL 0.87
0
#SCROLL 0.94
0
#SCROLL 1.02
0
#SCROLL 1.1
0
#SCROLL 1.18
0, //97
#MEASURE 4/4
#BPMCHANGE 264
#SCROLL 1.38
1,
#BARLINEOFF
0,
0,
0, //101
#END
