//TJADB Project
TITLE:Abyss of hell
TITLEJA:Abyss of hell
SUBTITLE:--Shinji Hosoe/TEKKEN REVOLUTION
SUBTITLEJA:「鉄拳 レボリューション」より
BPM:165
WAVE:Abyss of hell.ogg
OFFSET:-1.605
DEMOSTART:14.695 //Shinuchi:
3180/2590/1340/1130/880

COURSE:Edit
LEVEL:10
BALLOON:
SCOREINIT:320,890
SCOREDIFF:75
#START
3000000000002222,
#BPMCHANGE 167.51
1201002021002000,
#BPMCHANGE 163.01
2102002102002211,
#BPMCHANGE 166.54
1201002021002000,
#BPMCHANGE 163.58
2102002102002211, //5
#BPMCHANGE 167.21
1201002021002000,
#BPMCHANGE 162.31
2102002102002211,
#BPMCHANGE 167.5
1201002021002000,
#BPMCHANGE 165
1222121212221212, //9
1221012021012111,
2112002112002211,
1221012021012111,
2112002112002211,
1221012021012111,
2102101021002111,
2111201021112010,
2221221022112211,
5,
000000000000000000000000000000000008000000000000, //19
1002110210102210,
100111200002222100200000,
1002110210102210,
100111200002222100200000,
1002110210102210,
100111200002222100200000,
2222111122221111,
100000000300000300222100, //27
#GOGOSTART
1102021012012210,
1102021012012210,
1102021012012210,
1102021012012210,
2112021012012210,
2212021121112210,
2112021012012210,
2212021121112210, //35
1102021012012210,
1102021012012210,
1102021012012210,
1102021012012210,
2112021012012210,
2212021121112210,
2112021012012210,
200200100200202020202020100200100200100000300000, //43
#GOGOEND
2210001020202220,
2021011022101020,
2210001020202220,
200000200100000100100000202020202020100200100000,
2210001020202220,
2021011022101020,
2210001020202220,
2021011030030030, //51
1210001020202220,
2021221022101020,
1210001020202220,
200000200100000100100000202020202020100200100000,
1210001020202220,
2021221022101020,
1210001020202220,
200000200100000000300000101010101010100100200000,
1121012101210121,
0121012030030030, //61
#GOGOSTART
1012021011202210,
1012021021202110,
1012021011202210,
1012021021202110,
1210202101202210,
1210202101202210,
1210202101202210,
1210201040404040, //69
1012021011202210,
1012021021202110,
1012021011202210,
100000100200000200100000200100200000200000202020,
1210202101202210,
1210202101202210,
1210202101202210,
1210202101202211, //77
#GOGOEND
5,
0,
0,
0,
0,
000000000000000000000000000000000008000000000000, //83
#BPMCHANGE 162.92
1111221121112211,
#BPMCHANGE 165
2111102110112211,
2110112211102222,
#BPMCHANGE 164.8
1111102111101212, //87
#BPMCHANGE 167.18
1201012211012010,
#BPMCHANGE 163.33
2112012112012111,
#BPMCHANGE 166.54
1201012211012010,
#BPMCHANGE 163.58
2112012112012211, //91
#BPMCHANGE 166.46
1201012211012010,
#BPMCHANGE 163.02
2112012112012211,
#BPMCHANGE 167.5
1201012211012010,
#BPMCHANGE 165
1222121212221212, //95
#GOGOSTART
1221221221012121,
2112112112012121,
1221221221012121,
2112112112012121,
1221221221012121,
1221221221022111,
1221221221022111,
1221221221022111, //103
#GOGOEND
5,
000000000000000000000000000000000000000000000008,
0,
0, //107
#END

COURSE:Oni
LEVEL:8
BALLOON:
SCOREINIT:360,1150
SCOREDIFF:88
#START
3000000000002220,
#BPMCHANGE 167.51
1101002022002000,
#BPMCHANGE 163.01
1101001101002220,
#BPMCHANGE 166.54
1101002022002000,
#BPMCHANGE 163.58
1101001101002220, //5
#BPMCHANGE 167.21
1101002022002000,
#BPMCHANGE 162.31
1101001101002220,
#BPMCHANGE 167.5
1101002022002000,
#BPMCHANGE 165
1110111011101111, //9
1201002022002000,
2222002222002222,
1201002022002000,
2222002222002222,
1201002022002000,
1111002222001110,
1111002022002000,
1101002022001000, //17
5,
000000000000000000000000000000000008000000000000,
1001100200102220,
1022202222102000,
1001100200102220,
1022202222102000,
1001100200102220,
1022202222102000,
3,
00030300, //27
#GOGOSTART
1102011022001110,
1102011022001110,
1102011022001110,
1102011022001110,
2202011022201110,
2202011022201110,
2202011022201110,
2202011022201110, //35
1102011022001110,
1102011022001110,
1102011022001110,
1102011022001110,
2220202022202000,
2220202022202000,
2220202022202000,
500000000000000000000000000008000000300000300000, //43
#GOGOEND
1110001020202020,
2022022022202020,
1110001020202020,
1011011010001110,
1110001020202020,
2022022022202020,
1110001020202020,
1011011030030030, //51
1110001020102020,
2022022022101020,
1110001020102020,
1011011010002220,
1110101020102020,
2022022022101020,
1110101020102020,
1011003000000000,
1022002200220022,
0022002030030030, //61
#GOGOSTART
1011011010202000,
1011011010202000,
1011011010202000,
1011011010202000,
2220202210101000,
2220202210101000,
2220202210101000,
2220202040404040, //69
1011011010202010,
1011011010202010,
1011011010202010,
1011011010202020,
2220202210101010,
2220202210101010,
2220202210101010,
2220202210101010, //77
#GOGOEND
5,
0,
0,
0,
0,
000000000000000000000000000000000008000000000000, //83
#BPMCHANGE 162.92
1110101110101110,
#BPMCHANGE 165
2222202222202220,
1110102220202220,
#BPMCHANGE 164.8
1111102222201110, //87
#BPMCHANGE 167.18
1101001011001000,
#BPMCHANGE 163.33
1111001111001111,
#BPMCHANGE 166.54
1101001011001000,
#BPMCHANGE 163.58
1111001111001111, //91
#BPMCHANGE 166.46
1101001011001000,
#BPMCHANGE 163.02
1111001111001111,
#BPMCHANGE 167.5
1101001011001000,
#BPMCHANGE 165
1222122212221222, //95
#GOGOSTART
1102001011002010,
1111002222001111,
1102001011002010,
1111002222001111,
1102001011002000,
2102102102104000,
2102102102104000,
2102102102104000, //103
#GOGOEND
5,
000000000000000000000000000000000000000000000008,
0,
0, //107
#END

COURSE:Hard
LEVEL:8
BALLOON:
SCOREINIT:380,1400
SCOREDIFF:88
#START
3,
#BPMCHANGE 167.51
1101002022002000,
#BPMCHANGE 163.01
1101001101001000,
#BPMCHANGE 166.54
1101002022002000,
#BPMCHANGE 163.58
1101001101001000, //5
#BPMCHANGE 167.21
1101002022002000,
#BPMCHANGE 162.31
1101001101001000,
#BPMCHANGE 167.5
1101002022002000,
#BPMCHANGE 165
500000000000000000000000000000000008000000000000, //9
1101001011001000,
2222002222002000,
1101001011001000,
2222002222002000,
1101001011001000,
1101001011001000,
1101001011001000,
1101001011001110, //17
5,
000000000000000000000000000000000008000000000000,
1001100200102000,
1022200220102000,
1001100200102000,
1022200220102000,
1001100200102000,
1022200220102000,
3,
00030300, //27
#GOGOSTART
1101011011001000,
1101011011001000,
1101011011001000,
1101011011001000,
2202022022002000,
2202022022002000,
2202022022002000,
2202022022002000,
1101011011001000,
1101011011001000,
1101011011001000,
1101011011001000,
2220202022202000,
2220202022202000,
2220202022202000,
500000000000000000000000000008000000300000300000, //43
#GOGOEND
1110001010101010,
1011011011101010,
1110001010101010,
1011011011101010,
2220002020202020,
2022022022202020,
2220002020202020,
2022022030030030,
1110001010101010,
1011011011101010,
2220002020202020,
2022022022202020,
1110001010101010,
1011011011101010,
2220002020202020,
2022003000000000,
04040404,
0040004030030030, //61
#GOGOSTART
1011011010002000,
1011011010002000,
1011011010002000,
1011011010002000,
2220202200202000,
2220202200202000,
2220202200202000,
2220202040404040,
1011011010002000,
1011011010002000,
1011011010002000,
1011011010002000,
2220202200202000,
2220202200202000,
2220202200202000,
2220202200202000, //77
#GOGOEND
5,
0,
0,
0,
0,
000000000000000000000000000000000008000000000000, //83
#BPMCHANGE 162.92
1110101110101000,
#BPMCHANGE 165
2220202220202000,
1110101110101000,
#BPMCHANGE 164.8
2220202220202000, //87
#BPMCHANGE 167.18
1101001011001000,
#BPMCHANGE 163.33
1111001111001000,
#BPMCHANGE 166.54
1101001011001000,
#BPMCHANGE 163.58
1111001111001000, //91
#BPMCHANGE 166.46
1101001011001000,
#BPMCHANGE 163.02
1111001111001000,
#BPMCHANGE 167.5
1101001011001000,
#BPMCHANGE 165
500000000000000000000000000000000008000000000000, //95
#GOGOSTART
1101002022002000,
1111001111001000,
1101002022002000,
1111001111001000,
1101002022002000,
1101101101104000,
1101101101104000,
1101101101104000, //103
#GOGOEND
5,
000000000000000000000000000000000000000000000008,
0,
0, //107
#END

COURSE:Normal
LEVEL:7
BALLOON:
SCOREINIT:560,2790
SCOREDIFF:153
#START
3,
#BPMCHANGE 167.51
1001001000001000,
#BPMCHANGE 163.01
1001001000001000,
#BPMCHANGE 166.54
1001001000001000,
#BPMCHANGE 163.58
1001001000001000, //5
#BPMCHANGE 167.21
1001001000001000,
#BPMCHANGE 162.31
1001001000001000,
#BPMCHANGE 167.5
1001001000001000,
#BPMCHANGE 165
500000000000000000000000000000000008000000000000, //9
1001001000001000,
2002002000002000,
1001001000001000,
2002002000002000,
1001001000001000,
1001001001001000,
2002002002002000,
1001001001001000,
5,
000000000000000000000000000000000008000000000000, //19
1000100200002000,
1000100200000000,
1000100200002000,
1000100200000000,
1000100200002000,
1000100200000000,
3,
00030300, //27
#GOGOSTART
1001000010001000,
1001000010001000,
1001000010001000,
1001000010001000,
2002000020002000,
2002000020002000,
2002000020002000,
2002000020002000,
1001000010001000,
1001000010001000,
1001000010001000,
1001000010001000,
2002000020002000,
2002000020002000,
2002000020002000,
500000000000000000000008000000000000300000300000, //43
#GOGOEND
10111000,
2002002000000000,
10111000,
2002002000000000,
10111000,
2002002000000000,
10111000,
2002002030030030,
10111020,
2002002000000000,
10111020,
2002002000000000,
10111020,
2002002000000000,
10111020,
2002003000000000,
04040404,
0040004030030030, //61
#GOGOSTART
10011001,
01011100,
10011001,
01011100,
20022002,
02022200,
20022002,
02024040,
10011001,
01011100,
10011001,
01011100,
20022002,
02022200,
20022002,
02022200, //77
#GOGOEND
5,
0,
0,
0,
0,
000000000000000000000000000000000008000000000000, //83
#BPMCHANGE 162.92
0,
#BPMCHANGE 165
0,
0,
#BPMCHANGE 164.8
0, //87
#BPMCHANGE 167.18
1001001000001000,
#BPMCHANGE 163.33
1001001000001000,
#BPMCHANGE 166.54
1001001000001000,
#BPMCHANGE 163.58
1001001000001000, //91
#BPMCHANGE 166.46
1001001000001000,
#BPMCHANGE 163.02
1001001000001000,
#BPMCHANGE 167.5
1001001000001000,
#BPMCHANGE 165
500000000000000000000000000000000008000000000000, //95
#GOGOSTART
1001001001001000,
2002002002002000,
1001001001001000,
2002002002002000,
1001001001001000,
1001001001004000,
1001001001004000,
1001001001004000, //103
#GOGOEND
5,
000000000000000000000000000000000000000000000008,
0,
0, //107
#END

COURSE:Easy
LEVEL:5
BALLOON:
SCOREINIT:370,3440
SCOREDIFF:100
#START
3,
#BPMCHANGE 167.51
1001001000001000,
#BPMCHANGE 163.01
10010000,
#BPMCHANGE 166.54
1001001000001000,
#BPMCHANGE 163.58
10010000, //5
#BPMCHANGE 167.21
1001001000001000,
#BPMCHANGE 162.31
10010000,
#BPMCHANGE 167.5
1001001000001000,
#BPMCHANGE 165
500000000000000000000000000008000000000000000000, //9
1001001000002000,
20020000,
1001001000002000,
20020000,
1001001000002000,
20020000,
1001001000002000,
20020020,
5,
000000000000000000000000000008000000000000000000, //19
1000100100000000,
1000100100000000,
1000100100000000,
1000100100000000,
1000100100000000,
1000100100000000,
3,
00030300, //27
#GOGOSTART
1001000000001000,
1001000000001000,
1001000000001000,
1001000000001000,
2002000000002000,
2002000000002000,
2002000000002000,
2002000000002000,
1001000000001000,
1001000000001000,
1001000000001000,
1001000000001000,
2002000000002000,
2002000000002000,
2002000000002000,
1013, //43
#GOGOEND
1011,
20020020,
1011,
20020020,
1011,
20020020,
1011,
2000000030030030,
1011,
2002002000002000,
1011,
2002002000002000,
1011,
2002002000002000,
1011,
20030000,
33,
3000000030030030, //61
#GOGOSTART
10011010,
10011010,
10011010,
10011010,
20022020,
20022020,
20022020,
2244,
10011010,
10011010,
10011010,
10011010,
20022020,
20022020,
20022020,
20022020, //77
#GOGOEND
5,
0,
0,
0,
0,
000000000000000000000000000000000008000000000000, //83
#BPMCHANGE 162.92
0,
#BPMCHANGE 165
0,
0,
#BPMCHANGE 164.8
0, //87
#BPMCHANGE 167.18
1001001000000000,
#BPMCHANGE 163.33
20020000,
#BPMCHANGE 166.54
1001001000000000,
#BPMCHANGE 163.58
20020000, //91
#BPMCHANGE 166.46
1001001000000000,
#BPMCHANGE 163.02
20020000,
#BPMCHANGE 167.5
1001001000000000,
#BPMCHANGE 165
500000000000000000000000000008000000000000000000, //95
#GOGOSTART
1001001000001000,
2002002000002000,
1001001000001000,
2002002000002000,
1001001000001000,
1001001000004000,
1001001000004000,
1001001000004000, //103
#GOGOEND
5,
000000000000000000000000000000000000000000000008,
0,
0, //107
#END
