//TJADB Project
TITLE:‽Chaos Time‽
TITLEJA:!!!カオスタイム!!!
SUBTITLE:--t+pazolite
SUBTITLEJA:--t+pazolite
BPM:180
WAVE:!!!Chaos Time!!!.ogg
OFFSET:-2.767
DEMOSTART:90.043 //Shinuchi:
3240/2570/1500/950

COURSE:Oni
LEVEL:10
BALLOON:15,39
SCOREINIT:340,1000
SCOREDIFF:80
#START
#BARLINEOFF
0,
0, //2
#BARLINEON
#MEASURE 8/4
#BPMCHANGE 256
#SCROLL 2
30003000
#SCROLL 1
202000100022202010001000,
#SCROLL 2
30003000
#SCROLL 1
202000100022202010201020, //4(+4)
#SCROLL 2
3030
#SCROLL 1
22
#SCROLL 2
0303
#SCROLL 1
0220
#SCROLL 2
30,
#MEASURE 4/4
#SCROLL 4
500000000000000000000000000000000008000000000000,
#SCROLL 1
12221222, //7(+9)
1110101010202020,
1110101010202020,
1020102010210120,
1020111110002000, //11(+9)
1110101010202020,
1110101010202020,
1020102010210120,
100200111111100200100200, //15(+9)
100202102001,
002101200100,
100202102001,
001202100
#SCROLL 2
400, //19(+10)
#SCROLL 1
100100102102,
100100100100100020100020,
1010121010101210,
1122112212121212, //23(+10)
500000000000000000000000000000000000000000000008,
0,
20202222,
#MEASURE 8/4
000000200000100100100100100100100100100100000000
#SCROLL 0.9
100100100100100000001000
#SCROLL 0.8
000000100000
#SCROLL 0.7
000010000000, //27(+14)
#BPMCHANGE 160
#SCROLL 1
#GOGOSTART
100000100000000000100000
#SCROLL 0.75
200000
#SCROLL 1
100000100000000000100000000000100000000000
#SCROLL 0.75
200000
#SCROLL 1
100000000000100000
#SCROLL 0.75
200000
#SCROLL 1
100000100000100000100000000000100000100000
#SCROLL 0.75
200000
#SCROLL 1
100000000000100000500000000008000000000000, //28(+22)
100000100000000000100000
#SCROLL 0.75
200000
#SCROLL 1
100000100000000000100000000000100000000000
#SCROLL 0.75
200000
#SCROLL 1
100000000000100000
#SCROLL 0.75
200000
#SCROLL 1
100000100000100000100000000000100000100000
#SCROLL 0.75
200000
#SCROLL 1
100000000000100000500000000008000000000000, //29(+30)
1101
#SCROLL 0.75
2
#SCROLL 1
1101
#SCROLL 0.75
2
#SCROLL 1
1
#SCROLL 0.75
2
#SCROLL 1
11
#SCROLL 0.75
2
#SCROLL 1
10111
#SCROLL 0.75
2
#SCROLL 1
01111
#SCROLL 0.75
2
#SCROLL 1
110
#SCROLL 0.75
2
#SCROLL 1
0, //30(+45)
1101
#SCROLL 0.75
2
#SCROLL 1
1101
#SCROLL 0.75
2
#SCROLL 1
1
#SCROLL 0.75
2
#SCROLL 1
11
#SCROLL 0.75
2
#SCROLL 1
10111
#SCROLL 0.75
2
#SCROLL 1
01111
#SCROLL 0.75
2
#SCROLL 1
110
#SCROLL 0.75
2
#SCROLL 1
0, //31(+60)
#MEASURE 37/16
100000000000
#SCROLL 0.75
200
#SCROLL 1
000100000101010202020
#BPMCHANGE 240
#SCROLL 0.5
200
#SCROLL 0.67
100100200100200
#BPMCHANGE 160
#SCROLL 1
100000
#SCROLL 0.75
200
#SCROLL 1
100100000
#SCROLL 0.75
200
#SCROLL 1
000101010
#BPMCHANGE 240
#SCROLL 0.5
200
#SCROLL 0.67
200100100000000
#SCROLL 0.5
200
#SCROLL 0.67
000000, //32(+73)
#BPMCHANGE 160
#SCROLL 1
101020200100
#SCROLL 0.75
200
#SCROLL 1
000100100101020200100
#BPMCHANGE 240
#SCROLL 0.5
200
#SCROLL 0.67
200100100000000
#BPMCHANGE 160
#SCROLL 1
100100
#SCROLL 0.75
200
#SCROLL 1
200101020
#SCROLL 0.75
200
#SCROLL 1
100200000
#BPMCHANGE 240
#SCROLL 0.5
200
#SCROLL 0.67
200100100000000
#SCROLL 0.5
200
#SCROLL 0.67
200100, //33(+86)
#MEASURE 9/4
#BPMCHANGE 160
#SCROLL 1
500000000000000008000000101010
#BPMCHANGE 240
#SCROLL 0.5
200
#SCROLL 0.67
200200
#SCROLL 0.5
200
#SCROLL 0.67
100100
#BPMCHANGE 160
#SCROLL 0.75
200
#SCROLL 1
100000100
#SCROLL 0.75
200
#SCROLL 1
000101020
#SCROLL 0.75
200
#SCROLL 1
000101010
#BPMCHANGE 240
#SCROLL 0.5
200
#SCROLL 0.67
200200100200000
#BPMCHANGE 160
#SCROLL 0.75
200
#SCROLL 1
000, //34(+101)
#MEASURE 37/16
#SCROLL 1
101010200100
#SCROLL 0.75
200
#SCROLL 1
000100100101010200200
#BPMCHANGE 240
#SCROLL 0.5
200
#SCROLL 0.67
100100100000000
#BPMCHANGE 160
#SCROLL 1
100100
#SCROLL 0.75
200
#SCROLL 1
200101020
#SCROLL 0.75
200
#SCROLL 1
100100000
#BPMCHANGE 240
#SCROLL 0.5
200
#SCROLL 0.67
200100100000000
#SCROLL 0.5
200
#SCROLL 0.67
200100, //35(+114)
#GOGOEND
#MEASURE 4/4
#BPMCHANGE 160
#SCROLL 1
100
#BPMCHANGE 140
0,
#BPMCHANGE 256
#SCROLL 2
3344, //37(+115)
#SCROLL 1
1110202011102020,
1022101022102010,
1110202011102020,
1022101022102010, //41(+115)
1110202011102020,
1120102011201020,
1110222011102220,
102020201000
#SCROLL 3
4
#SCROLL 1
000, //45(+117)
#GOGOSTART
#SCROLL 1.1
1
#SCROLL 1
022
#SCROLL 1.15
1
#SCROLL 1
022
#SCROLL 1.2
1
#SCROLL 1
022
#SCROLL 1.25
1
#SCROLL 1
022, //46(+124)
#BARLINEOFF
#SCROLL 1.3
1
#SCROLL 1
022
#SCROLL 1.35
1
#SCROLL 1
022
#SCROLL 1.4
1
#SCROLL 1
022
#SCROLL 1.5
1010, //47(+130)
#SCROLL 1
11
#SCROLL 1.6
2020
#SCROLL 1
11
#SCROLL 1.7
2020
#SCROLL 1
11
#SCROLL 1.8
20, //48(+135)
20
#SCROLL 1
11
#SCROLL 2
2020
#SCROLL 1
3000
#SCROLL 3
4
#SCROLL 1
000, //49(+140)
#SCROLL 2
1
#SCROLL 1
022
#SCROLL 1.8
1
#SCROLL 1
022
#SCROLL 1.6
1
#SCROLL 1
022
#SCROLL 1.5
1
#SCROLL 1
030, //50(+147)
00300030001120
#SCROLL 1.6
10, //51(+148)
10
#SCROLL 1
22
#SCROLL 1.8
1010
#SCROLL 1
22
#SCROLL 2
1010
#SCROLL 1
40, //52(+153)
0040004000
#SCROLL 3
4
#SCROLL 1
00000, //53(+155)
#BARLINEON
#SCROLL 1.1
1
#SCROLL 1
022
#SCROLL 1.15
1
#SCROLL 1
022
#SCROLL 1.2
1
#SCROLL 1
022
#SCROLL 1.25
1
#SCROLL 1
022, //54(+162)
#BARLINEOFF
#SCROLL 1.3
1
#SCROLL 1
022
#SCROLL 1.35
1
#SCROLL 1
022
#SCROLL 1.4
1
#SCROLL 1
022
#SCROLL 1.5
1010, //55(+168)
#SCROLL 1
11
#SCROLL 1.6
2020
#SCROLL 1
11
#SCROLL 1.7
2020
#SCROLL 1
11
#SCROLL 1.8
20, //56(+173)
20
#SCROLL 1
11
#SCROLL 2
2020
#SCROLL 1
3000
#SCROLL 3
4
#SCROLL 1
000, //57(+178)
#SCROLL 2
1
#SCROLL 1
022
#SCROLL 1.8
1
#SCROLL 1
022
#SCROLL 1.6
1
#SCROLL 1
022
#SCROLL 1.5
1
#SCROLL 1
030, //58(+185)
00300030001120
#SCROLL 1.5
10, //59(+186)
101
#SCROLL 1
2
#SCROLL 1.6
10101
#SCROLL 1
2
#SCROLL 1.8
101010, //60(+191)
#SCROLL 2
1111111112121212,
70000008, //62(+191)
#GOGOEND
#BARLINEON
#SCROLL 1
10202222,
02222010,
10202222,
000000000000200000000000
#SCROLL 3
500000000000000008000000, //66(+192)
#SCROLL 1
10210121,
1101201011112000,
100010001000200000100000100100100000200000100000,
201120112210
#SCROLL 3
4000, //70(+193)
#SCROLL 1
#GOGOSTART
1022102011201022,
1020112010221020,
1022102010222050,
000000000000000000000000000000000008000000000000, //74(+193)
1022102012201022,
1020122010221020,
1012202010222050,
000000000008000000000000
#BPMCHANGE 265
#SCROLL 3
400000000000400000000000, //78(+194)
#SCROLL 1
1022102210211010,
1111222210001000,
1022102210211010,
0012201222221022, //82(+194)
1000222010221010,
1111222210001022,
1022112111211050,
000000000008000000000000
#BPMCHANGE 272
#SCROLL 3
400000000000400000000000, //86(+195)
#SCROLL 1
1022102210201111,
100200100200100200100200100000200000100010001000,
100000001000200020002000100000200200200000500000,
000000000000000000000000000000000008000000000000, //90(+195)
2211221110221120,
1212121210212120,
#BPMCHANGE 280
1122102011221120,
#BPMCHANGE 285
12221222, //94(+195)
#BPMCHANGE 290
1111212111212111,
1122,
7,
0, //98(+195)
00000008,
1111111111111111,
1111111111111111,
#GOGOEND
1,
0, //103(+195)
#END

COURSE:Hard
LEVEL:8
BALLOON:15,15,20
SCOREINIT:400,1620
SCOREDIFF:98
#START
#BARLINEOFF
0,
0, //2
#BARLINEON
#MEASURE 8/4
#BPMCHANGE 256
#SCROLL 2
33
#SCROLL 1
000000,
#SCROLL 2
33
#SCROLL 1
000000, //4(+4)
#SCROLL 2
3030
#SCROLL 1
00
#SCROLL 2
0303
#SCROLL 1
0000
#SCROLL 2
30,
#MEASURE 4/4
#SCROLL 4
500000000000000000000000000000000008000000000000,
#SCROLL 1
0, //7(+9)
11101011,
11101011,
10101101,
01111020,
11101011,
11101011,
10101101,
01111020, //15(+9)
100200102000,
1120,
100200102000,
112
#SCROLL 2
4, //19(+10)
#SCROLL 1
10101111,
10101111,
1110101010101010,
1110101010101010, //23(+10)
500000000000000000000000000000000000000000000008,
0,
22,
#MEASURE 8/4
7000000000000800, //27(+14)
#BPMCHANGE 160
#GOGOSTART
11010110101011010111101111011000,
11010110101011010111101111011000,
11010110101011010111101111011000,
11010110101011010111101111011000, //31(+60)
#MEASURE 37/16
022020220202
#BPMCHANGE 240
#SCROLL 0.67
200200
#BPMCHANGE 160
#SCROLL 1
0220202202
#BPMCHANGE 240
#SCROLL 0.67
200200200, //32(+73)
#BPMCHANGE 160
#SCROLL 1
022020220202
#BPMCHANGE 240
#SCROLL 0.67
200200
#BPMCHANGE 160
#SCROLL 1
0220202202
#BPMCHANGE 240
#SCROLL 0.67
200200200, //33(+86)
#MEASURE 9/4
#BPMCHANGE 160
#SCROLL 1
0220222202
#BPMCHANGE 240
#SCROLL 0.67
200200
#BPMCHANGE 160
#SCROLL 1
200220202202
#BPMCHANGE 240
#SCROLL 0.67
200200
#BPMCHANGE 160
#SCROLL 1
20, //34(+101)
#MEASURE 37/16
022020220202
#BPMCHANGE 240
#SCROLL 0.67
200200
#BPMCHANGE 160
#SCROLL 1
0220202202
#BPMCHANGE 240
#SCROLL 0.67
200200200, //35(+114)
#GOGOEND
#MEASURE 4/4
#BPMCHANGE 160
#SCROLL 1
100
#BPMCHANGE 140
0,
#BPMCHANGE 256
#SCROLL 2
3333, //37(+115)
#SCROLL 1
11221122,
12121122,
11221122,
12121122,
11221122,
12121212,
11221122,
000000000000
#SCROLL 3
4
#SCROLL 1
000, //45(+117)
#GOGOSTART
10101011,
#BARLINEOFF
10101011,
12121212,
121230
#SCROLL 3
40,
#SCROLL 1
10101103,
0030003000111010,
10111104,
04040
#SCROLL 3
400, //53(+155)
#BARLINEON
#SCROLL 1
10101011,
#BARLINEOFF
12121211,
11122211,
121230
#SCROLL 3
40,
#SCROLL 1
10101103,
0030003000111010,
12121212,
1110101010101010,
70000008, //62(+191)
#GOGOEND
#BARLINEON
10200022,
0202,
10200022,
000000000000200000000000
#SCROLL 3
500000000000000008000000, //66(+192)
#SCROLL 1
10210120,
10210120,
1010200011102000,
100020201110
#SCROLL 3
4000, //70(+193)
#GOGOSTART
#SCROLL 1
10101122,
1020102010111000,
10101225,
000000000000000000000000000000000008000000000000,
10101122,
1020102010111000,
1000202010222050,
000000000008000000000000
#BPMCHANGE 265
#SCROLL 3
400000000000400000000000, //78(+194)
#SCROLL 1
10101122,
1020102010111000,
10101225,
000000000000000000000000000000000008000000000000,
10221122,
1020102010111000,
1000202010222050,
000000000008000000000000
#BPMCHANGE 272
#SCROLL 3
400000000000400000000000, //86(+195)
#SCROLL 1
10101122,
1020102010111000,
10101225,
000000000000000000000000000000000008000000000000,
2220101020201010,
2220101020201010,
#BPMCHANGE 280
21212121,
#BPMCHANGE 285
0, //94(+195)
#BPMCHANGE 290
1110202011102020,
1122,
7,
0,
00000008,
1110101010101010,
1110101010101010,
#GOGOEND
1,
0, //103(+195)
#END

COURSE:Normal
LEVEL:7
BALLOON:10,7,13
SCOREINIT:540,2900
SCOREDIFF:145
#START
#BARLINEOFF
0,
0, //2
#BARLINEON
#MEASURE 8/4
#BPMCHANGE 256
#SCROLL 2
33
#SCROLL 1
000000,
#SCROLL 2
33
#SCROLL 1
000000, //4(+4)
#SCROLL 2
3030
#SCROLL 1
00
#SCROLL 2
0303
#SCROLL 1
0000
#SCROLL 2
00,
#MEASURE 4/4
#SCROLL 4
500000000000000000000000000000000008000000000000,
#SCROLL 1
0, //7(+9)
10101011,
1110,
10101001,
01101000,
10101011,
1110,
10101001,
01101000, //15(+9)
12,
1120,
12,
112
#SCROLL 2
4,
#SCROLL 1
1110,
1110,
1111,
11101110, //23(+10)
500000000000000000000000000000000000000000000008,
0,
22,
#MEASURE 8/4
7000000000000800, //27(+14)
#BPMCHANGE 160
#GOGOSTART
10101120,
10101120,
10101220,
10101220, //31(+60)
#MEASURE 37/16
100020001000
#BPMCHANGE 240
#SCROLL 0.67
000200
#BPMCHANGE 160
#SCROLL 1
1000200010
#BPMCHANGE 240
#SCROLL 0.67
000000200, //32(+73)
#BPMCHANGE 160
#SCROLL 1
100020001000
#BPMCHANGE 240
#SCROLL 0.67
000200
#BPMCHANGE 160
#SCROLL 1
1000200010
#BPMCHANGE 240
#SCROLL 0.67
000000200, //33(+86)
#MEASURE 9/4
#BPMCHANGE 160
#SCROLL 1
1000200010
#BPMCHANGE 240
#SCROLL 0.67
000000
#BPMCHANGE 160
#SCROLL 1
201000200010
#BPMCHANGE 240
#SCROLL 0.67
000000
#BPMCHANGE 160
#SCROLL 1
20, //34(+101)
#MEASURE 37/16
100020001000
#BPMCHANGE 240
#SCROLL 0.67
000200
#BPMCHANGE 160
#SCROLL 1
1000200010
#BPMCHANGE 240
#SCROLL 0.67
000000200, //35(+114)
#GOGOEND
#MEASURE 4/4
#BPMCHANGE 160
#SCROLL 1
100
#BPMCHANGE 140
0,
#BPMCHANGE 256
#SCROLL 2
3333, //37(+115)
#SCROLL 1
500000000000000000000000000000000008000000000000,
02120212,
500000000000000000000000000000000008000000000000,
02120212,
500000000000000000000000000000000008000000000000,
02020202,
02120212,
000000000000
#SCROLL 3
4
#SCROLL 1
000, //45(+117)
#GOGOSTART
10101011,
#BARLINEOFF
10101011,
10111011,
101130
#SCROLL 3
40,
#SCROLL 1
10101103,
03030000,
10101104,
04040
#SCROLL 3
400, //53(+155)
#BARLINEON
#SCROLL 1
10101011,
#BARLINEOFF
10101011,
10111011,
101130
#SCROLL 3
40,
#SCROLL 1
10101103,
03030000,
12101210,
500000000000000000000000000000000000000008000000,
7, //62(+191)
#GOGOEND
#BARLINEON
8,
0,
0,
000000000000000000000000
#SCROLL 3
500000000000000008000000,
#SCROLL 1
1202,
1212,
11201120,
102011
#SCROLL 3
40, //70(+193)
#SCROLL 1
#GOGOSTART
10101011,
10101011,
10111025,
000000000000000000000000000000000008000000000000,
10101011,
10101011,
10111025,
000000000008000000000000
#BPMCHANGE 265
#SCROLL 3
400000000000400000000000, //78(+194)
#SCROLL 1
10101011,
10101011,
10111025,
000000000000000000000000000000000008000000000000,
10111011,
10111010,
10111025,
000000000008000000000000
#BPMCHANGE 272
#SCROLL 3
400000000000400000000000, //86(+195)
#SCROLL 1
10101011,
1212,
10111025,
000000000000000000000000000000000008000000000000,
11101110,
1212,
#BPMCHANGE 280
11101110,
#BPMCHANGE 285
0, //94(+195)
#BPMCHANGE 290
11111111,
1122,
7,
0,
00000008,
5,
000000000000000000000000000000000000000000000008,
#GOGOEND
0,
0, //103(+195)
#END

COURSE:Easy
LEVEL:5
BALLOON:8,5,10
SCOREINIT:370,3730
SCOREDIFF:95
#START
#BARLINEOFF
0,
0, //2
#BARLINEON
#MEASURE 8/4
#BPMCHANGE 256
#SCROLL 2
33
#SCROLL 1
000000,
#SCROLL 2
33
#SCROLL 1
000000, //4(+4)
#SCROLL 2
3030
#SCROLL 1
00
#SCROLL 2
0303
#SCROLL 1
0000
#SCROLL 2
00,
#MEASURE 4/4
#SCROLL 4
500000000000000000000000000000000008000000000000,
#SCROLL 1
0, //7(+9)
1110,
1110,
1111,
1110,
1110,
1110,
1111,
1110, //15(+9)
12,
1120,
12,
112
#SCROLL 2
4,
#SCROLL 1
1110,
1110,
1111,
1111, //23(+10)
500000000000000000000000000000000000000000000008,
0,
22,
#MEASURE 8/4
7000000000000800, //27(+14)
#BPMCHANGE 160
#GOGOSTART
10101110,
10101110,
10101120,
10101120, //31(+60)
#MEASURE 37/16
100020001000
#BPMCHANGE 240
#SCROLL 0.67
000000
#BPMCHANGE 160
#SCROLL 1
1000200010
#BPMCHANGE 240
#SCROLL 0.67
000000000, //32(+73)
#BPMCHANGE 160
#SCROLL 1
100020001000
#BPMCHANGE 240
#SCROLL 0.67
000000
#BPMCHANGE 160
#SCROLL 1
1000200020
#BPMCHANGE 240
#SCROLL 0.67
000000000, //33(+86)
#MEASURE 9/4
#BPMCHANGE 160
#SCROLL 1
1000200010
#BPMCHANGE 240
#SCROLL 0.67
000000
#BPMCHANGE 160
#SCROLL 1
001000200010
#BPMCHANGE 240
#SCROLL 0.67
000000
#BPMCHANGE 160
#SCROLL 1
00, //34(+101)
#MEASURE 37/16
100020001000
#BPMCHANGE 240
#SCROLL 0.67
000000
#BPMCHANGE 160
#SCROLL 1
1000200020
#BPMCHANGE 240
#SCROLL 0.67
000000000, //35(+114)
#GOGOEND
#MEASURE 4/4
#BPMCHANGE 160
#SCROLL 1
100
#BPMCHANGE 140
0,
#BPMCHANGE 256
#SCROLL 2
3333, //37(+115)
#SCROLL 1
500000000000000000000000000000000008000000000000,
02002000,
500000000000000000000000000000000008000000000000,
02002000,
500000000000000000000000000000000008000000000000,
2222,
1111,
000000000000
#SCROLL 3
4
#SCROLL 1
000, //45(+117)
#GOGOSTART
1110,
#BARLINEOFF
1110,
1111,
113
#SCROLL 3
4,
#SCROLL 1
10101003,
03030000,
10101004,
04040
#SCROLL 3
400, //53(+155)
#BARLINEON
#SCROLL 1
1110,
#BARLINEOFF
1110,
1111,
113
#SCROLL 3
4,
#SCROLL 1
10101003,
03030000,
1111,
500000000000000000000000000000000000000008000000,
7, //62(+191)
#GOGOEND
#BARLINEON
8,
0,
0,
000000000000000000000000
#SCROLL 3
500000000000000008000000, //66(+192)
#SCROLL 1
0202,
0212,
1111,
111
#SCROLL 3
4, //70(+193)
#GOGOSTART
#SCROLL 1
1111,
1111,
10101005,
000000000000000000000000000000000008000000000000,
1111,
1111,
10101005,
000000000008000000000000
#BPMCHANGE 265
#SCROLL 3
400000000000400000000000, //78(+194)
#SCROLL 1
1111,
1111,
10101005,
000000000000000000000000000000000008000000000000,
1111,
1111,
10101005,
000000000008000000000000
#BPMCHANGE 272
#SCROLL 3
400000000000400000000000, //86(+195)
#SCROLL 1
1111,
1111,
10101005,
000000000000000000000000000000000008000000000000,
1111,
1111,
#BPMCHANGE 280
1111,
#BPMCHANGE 285
0, //94(+195)
#BPMCHANGE 290
1212,
1122,
7,
0,
00000008,
5,
000000000000000000000000000000000000000000000008,
#GOGOEND
0,
0, //103(+195)
#END
