//TJADB Project
TITLE:Silent Jealousy
TITLEJA:Silent Jealousy
SUBTITLE:--X JAPAN
SUBTITLEJA:
BPM:183
WAVE:Silent Jealousy.ogg
OFFSET:-1.659
DEMOSTART:75.087 //Shinuchi: Shinuchi: 3850/2740/1200/870/700

COURSE:Edit
LEVEL:10
BALLOON:
SCOREINIT:240,720
SCOREDIFF:58
#START
4000100010111110,
1001101011101111,
2000400211121121,
1211211211221110,
4010111110011010,
1101101111101111,
2000400221112111,
1022222222111111,
1020012010210120,
1020012010210120,
1020012010210120,
1020012010210120,
1020012010210120,
1040011120111110,
4011111111111111,
1111111111111111,
1111111111111111,
1121112111211121,
1111111111111111,
1111111111111111,
1111111111111111,
1040012010222111,
1011111111111110,
4002221002221010,
1020012010210120,
1020012010210120,
1020012010210120,
1011112030030030,
1020012010210120,
1020012010210120,
1110111110222020,
1111101000401111,
1020012010211120,
1020012010211120,
1020012010211120,
1011112030030030,
1020012010211120,
1020012010211120,
1110111110222020,
1040112222111110,
1020111110201111,
1020111110201010,
2222102011111010,
1111101000111120,
1020112210201122,
1020112210201020,
1111102011111020,
1021112111211120,
1020112010211120,
1020112010211120,
2222202011111010,
1111101000111120,
1020112010211120,
1020112010211120,
1010112210201222,
1022222211111111,
#GOGOSTART
1020112010210120,
1020112010210120,
1020112010210120,
1111101011111010,
1020112010211120,
1020112010211120,
1020112010211120,
1111101022222020,
1020112010210120,
1020112010210120,
1020112010210120,
2222202011111010,
1020112010211120,
1020112010211120,
1020112010211120,
1010111222101111,
#GOGOEND
2022101120221011,
2011111111111111,
#GOGOSTART
2022221000221020,
1111101022221011,
2222202210112010,
1111112000222020,
1111101010222020,
1111112000222020,
1111101020010020,
2010002222222222,
1000004030040040,
4003004030040030,
1111112000400030,
1111112000040040,
3011221122112211,
2211221122112212,
2211221122112211,
2211221122112211,
#GOGOEND
2000300010101110,
4011211121112111,
2000400011102211,
1020211121112111,
1010111111111040,
1110401110401110,
1020220220221112,
1121121122222210,
#GOGOSTART
1020112010210120,
1020112010210120,
1020112010210120,
1122102012221020,
1020112010210120,
1020112010210120,
1020112010210120,
1111101022222020,
1020212011210120,
1020212011210120,
3000001111110120,
1022221000101110,
1020112010210120,
1020111121111110,
11221122,
1110222011102220,
2211222022112220,
1111222211112222,
1040111121111121,
1111211122111122,
2211200111222211,
1111111111204000,
1121121122221122,
1122222222111110,
4,
0,
#GOGOEND
0,
0,
0,
0,
#END

COURSE:Oni
LEVEL:8
BALLOON:20
SCOREINIT:280,930
SCOREDIFF:63
#START
3000100010111010,
1001101010101110,
3000300010111010,
1110101110100010,
3000100010111010,
1001101010101110,
3000300010111010,
1011111110101010,
1020002010110110,
1020002010110110,
1020002010110110,
1020002010110110,
1020002010110110,
1040111110111000,
1110102011101020,
1110102011100010,
1110102011101020,
1022202010222010,
1110102011101020,
1110102011100010,
1110102011101020,
1020222010111010,
1011111011101010,
40140141,
1020002010210120,
1020002010210120,
1020002010210120,
1011102030030030,
1020002010210120,
1020002010210120,
1110100010222020,
1000111010401111,
1020002010210120,
1020002010210120,
1020002010210120,
1011102030030030,
1020002010210120,
1020002010210120,
1110100010222020,
1000111110111010,
1010001110110110,
1010001110110110,
1020002210220220,
1020002210220220,
1010001110110110,
1010001110110110,
2020002210220220,
11221122,
1020002210210120,
1020002210210120,
1010001110110110,
1010001010110110,
1020002210210120,
1020002210210120,
1010111110101111,
1010222211111010,
#GOGOSTART
1020102010210120,
1020102010210120,
1020102010210120,
1111101011111010,
1020102010210120,
1020102010210120,
1020102010210120,
1111101022222020,
1020102010210120,
1020102010210120,
1020102010210120,
2222202011111010,
1020102010210120,
1020102010210120,
1020102010210120,
1010111110101110,
#GOGOEND
22112211,
2020101020101110,
#GOGOSTART
2000221000221020,
1000101022201111,
2000002210112010,
1111102000222020,
1111101010222020,
1111102000400040,
1111101020010020,
21040000,
3000004030040040,
4003004040040030,
40040403,
4000004000040040,
3011221122112211,
2211221122112211,
2211221122112211,
2211221122112210,
#GOGOEND
4000400010101110,
4000111011111000,
30400300,
3000111011101111,
1010111010111030,
0433,
600000000000000000000000000000000008000000000000,
1011011011111000,
#GOGOSTART
1020102010210120,
1020102010210120,
1020102010210120,
1111101011111010,
1020102010210120,
1020102010210120,
1020102010210120,
1111101022222020,
1011101010111010,
1011101010111010,
3000001111100020,
0011111000300030,
6,
000008000000100100100100100000100100100100100100,
7,
08,
11221122,
1110222011102220,
1040000011101110,
1111111110300030,
3040000022202220,
1111111110300030,
3040000022202220,
1111111111111110,
4,
0,
#GOGOEND
0,
0,
0,
0,
#END

COURSE:Hard
LEVEL:7
BALLOON:18
SCOREINIT:310,1310
SCOREDIFF:73
#START
3000100010111010,
1000100010111010,
4000400010111010,
10030300,
3000100010111010,
1000100010111010,
4000400010111010,
100000500000000000000000000000000008000000000000,
12021202,
12021010,
12021202,
12021010,
12021202,
100000400000500000000000000000000000000008000000,
1010111010101110,
1010111010100010,
1010111010101110,
02020202,
1010111010101110,
1010111010100010,
1010111010101110,
1010001010030030,
500000000000000000000000000000000008000000000000,
40040040,
1010101010101110,
1010101010101110,
1010101010101110,
02020202,
1010101010101110,
1010101010101110,
5,
000000000000000000000008000000400000000000100100,
1010111010101110,
1010111010101110,
1010111010101110,
000000500000000000000000000000000000000008000000,
1010111010101110,
1010111010101110,
5,
000000000000000000000000000000000000000008000000,
1010001010110110,
1010001010110110,
2020002020220220,
2020002020220220,
1010001010110110,
1010001010110110,
2020002020220220,
500000000000000000000008000000000000000000000000,
1010001010110110,
1010001010110110,
2020002020220220,
2020002020220220,
1010001010110110,
1010001010110110,
1010111010101110,
500000000000000000000000000000000008000000000000,//56
#GOGOSTART
12021202,
1020002010111010,
12021202,
1011101010111010,
12021202,
1020002010111010,
12021202,
1011101020222020,
12021202,
1020002010111010,
12021202,
1011101010111010,
12021202,
1020002010111010,
500000000000000000000000000000000008000000000000,
1011101110111000, //72
#GOGOEND
22112211,
2020101020201110, //74
#GOGOSTART
20210212,
10112211,
2000002220222010,
20040202,
10011221,
10040404,
3000000010010010,
11060000,
000000000008000000000000300000000300000000300000,
3003003030030030,
30030303,
3000003000030030,
3011101110111011,
1011101110111011,
1022202220222022,
2022202220222020,//90
#GOGOEND
4000400010101111,
500000000000000000000000000000000008000000000000,
30400300,
3000111011101000,
1110111010101040,
00400400,
500000000000000000000000000000000008000000000000,
1011011011111000,//98
#GOGOSTART
12021202,
1020002010111010,
12021202,
1011101010111010,
12021202,
1020002010111010,
1020002010111010,
33,
600000000000000000000000000000000008000000000000,
00000300,
3000001110200020,
1011102000111020,
5,
000000000008000000000000000000100000000000100000,
7,
08,
11221122,
11221122,
1000000011101110,
500000000000000000000000000000000008000000000000,
3000000022202220,
500000000000000000000000000000000008000000000000,
3000000011101110,
600000000000000000000000000000000008000000000000,
4,
0, //124
#GOGOEND
0,
0,
0,
0,
#END

COURSE:Normal
LEVEL:6
BALLOON:12
SCOREINIT:550,3190
SCOREDIFF:145
#START
31,
1110,
4450,
000000000000000000000000000000000008000000000000,
31,
1110,
4450,
000000000000000000000000000000000008000000000000,
1011,
10000100,
10000100,
1,
1011,
500000000000000000000000000000000008000000000000,
01110111,
01110100,
01110111,
02020200,
01110111,
01110100,
01110111,
05000000,
000000000000000000000000000000000008000000000000,
30030030,
01010101,
01010101,
01010101,
0,
02020202,
02020202,
02020202,
02020000,
01010101,
01010101,
01010101,
0,
02020202,
02020202,
02020202,
02020000,
12,
1120,
12,
1100,
12,
1120,
1122,
500000000000000000000008000000000000000000000000,
12,
1122,
12,
1100,
12,
1122,
1111,
500000000000000000000000000000000008000000000000,//56
#GOGOSTART
1011,
1011,
1111,
11,
2022,
2022,
2222,
22,
1011,
1011,
1111,
11,
2022,
2022,
2222,
43, //72
#GOGOEND
600000000000000000000000000000000000000000000008,
0, //74
#GOGOSTART
10010001,
10011010,
40040000,
40040000,
30011010,
10030000,
30011010,
10040000,
3,
1001000010010000,
30030000,
40040000,
11101110,
11101110,
22202220,
22202220,//90
#GOGOEND
30003003,
0,
5,
000000000008000000000000000000000000000000000000,
30003003,
0044,
600000000000000000000000000000000008000000000000,
0,//98
#GOGOSTART
1011,
11,
1111,
11,
2022,
2022,
2222,
43,
600000000000000000000000000000000000000000000008,
0,
3,
00000303,
6,
000000000008000000000000000000000000000000000000,
7,
08,
1122,
1122,
1011,
500000000000000000000000000000000008000000000000,
1022,
500000000000000000000000000000000008000000000000,
3033,
600000000000000000000000000000000008000000000000,
3,
0,//124
#GOGOEND
0,
0,
0,
0,
#END

COURSE:Easy
LEVEL:4
BALLOON:8
SCOREINIT:430,4490
SCOREDIFF:113
#START
31,
1110,
35,
000000000000000000000000000008000000000000000000,
31,
1110,
35,
000000000000000000000000000008000000000000000000,
1011,
1,
10000100,
1,
1011,
1,
11,
1,
11,
1,
11,
1,
11,
5,
000000000000000000000000000008000000000000000000,
30030030,
11,
11,
10001001,
0,
11,
11,
11,
10010000,
22,
22,
20002002,
0,
11,
11,
11,
10010000,
12,
12,
12,
1,
12,
12,
12,
2,
11,
1110,
11,
1110,
11,
1111,
3,
500000000000000000000000000008000000000000000000,//56
#GOGOSTART
11,
1110,
11,
1110,
22,
2220,
22,
2220,
11,
1110,
11,
1110,
22,
2220,
11,
33,//72
#GOGOEND
600000000000000000000000000000000000000000000008,
0,//74
#GOGOSTART
10010000,
10010000,
20020000,
20020000,
10010000,
10010000,
20020000,
20040000,
3,
3,
30030000,
30030000,
1111,
1110,
2222,
2220,//90
#GOGOEND
30003003,
0011,
1,
3,
30003003,
0011,
500000000000000000000000000000000008000000000000,
0,//98
#GOGOSTART
11,
1110,
11,
1110,
22,
2220,
22,
33,
600000000000000000000000000000000008000000000000,
0,
3,
00000300,
6,
000000000008000000000000000000000000000000000000,
7,
08,
11,
1110,
1011,
500000000000000000000000000008000000000000000000,
1011,
500000000000000000000000000008000000000000000000,
1033,
600000000000000000000000000008000000000000000000,
3,
0,//124
#GOGOEND
0,
0,
0,
0,
#END
