//TJADB Project
TITLE:Synchronicity
TITLEJA:Synchronicity
SUBTITLE:--Taku Inoue/Synchronica
SUBTITLEJA:「シンクロニカ」より
BPM:130
WAVE:Synchronicity.ogg
OFFSET:-2.026
DEMOSTART:93.875 //Shinuchi:
7910/4640/2990/2000

COURSE:Oni
LEVEL:8
BALLOON:16,4,4,4,30
SCOREINIT:660,2240
SCOREDIFF:170
#START
#BARLINEOFF
0, //0
#BARLINEON
200000000200000000200011,
1,
200000000200000000200011,
1,
200000000200000000200011,
100000000000000000000011,
20020070,
0008, //8
1012010010010030,
0010201110003000,
1012010010020030,
0010201120203000,
1012011010010030,
0010201110003000,
1012011010020030,
0010201110404000, //16
1010201010102011,
11211121,
1010201010102011,
1010201010122000,
1010201010102011,
1010201110102010,
3030030070008000,
300000300000000300000000600000000000000008000000, //24
3,
20020020,
0,
20020020,
0,
20020020,
0,
40040060,
000000000000000000000008000000000000300000000000, //33
#GOGOSTART
1122012010110220,
1122022110110110,
1122022210110220,
1111021210004000,
101010200100000100200100200000200100000100200200,
1101011122220220,
1212121212121212,
100100100100100100100100500000000000000008000000, //41
#GOGOEND
1010201010102011,
11211121,
1010201010102011,
11211121,
1010201010102011,
1010201110102010,
3030030070008000,
300000300000000300000000600000000000000008000000, //49
#GOGOSTART
200000000100200000100100200000101010200000100000,
2011201021012010,
200000000100200000100100200000101010200000100000,
2011201021012000,
200000000100200000100100200000101010200000100000,
2011201120112210,
2001201120012010,
600000000000000000000008000000000000300000000000, //57
200000000100200000100100200000101010200000100000,
2011201021012010,
200000000100200000100100200000101010200000100000,
2011201021012022,
1001201101012010,
2001201202021000,
3030030070008000,
300000300000000300000000600000000000000008000000, //65
#GOGOEND
7,
0,
8, //68
#END

COURSE:Hard
LEVEL:6
BALLOON:12,2,2,2,22
SCOREINIT:760,3520
SCOREDIFF:213
#START
#BARLINEOFF
0, //0
#BARLINEON
20020020,
0,
20020020,
0,
20020020,
0,
20020070,
0008, //8
1000000010010030,
0233,
1111,
10102240,
1011010010010030,
0233,
1011010010010030,
00202240, //16
10201120,
10201120,
10201120,
10201220,
1000200010002011,
1000201110002000,
3030030070008000,
300000300000000300000000600000000000000008000000, //24
3,
20020020,
0,
20020020,
0,
20020020,
0,
40040060,
000000000000000000000008000000000000300000000000, //33
#GOGOSTART
1001011020020020,
1001011020020020,
1001011020020020,
1101011010004000,
1101011020020020,
1101011022020020,
11111111,
100100100100100100100100500000000000000008000000, //41
#GOGOEND
1212,
1212,
1212,
1212,
1000200010002011,
1000201110002000,
3030030070008000,
300000300000000300000000600000000000000008000000, //49
#GOGOSTART
2001201020012010,
2001201020102000,
2001201020012010,
2001201020102000,
2001201020012010,
2001201020111000,
3232,
600000000000000000000008000000000000300000000000, //57
2001201020012010,
2001201020102000,
2001201020012010,
2001201020104000,
500000000000000000000000000000000008000000000000,
600000000000000000000000000000000008000000000000,
3030030070008000,
300000300000000300000000600000000000000008000000, //65
#GOGOEND
7,
0,
8, //68
#END

COURSE:Normal
LEVEL:3
BALLOON:8,16
SCOREINIT:720,5700
SCOREDIFF:248
#START
#BARLINEOFF
0, //0
#BARLINEON
20020020,
0,
20020020,
0,
20020020,
0,
20020070,
0008, //8
10001003,
03,
1111,
1120,
10001003,
03,
10001003,
0220, //16
11,
1012,
11,
1012,
1012,
1012,
3030030030000000,
3030030030000000, //24
3,
20020020,
0,
20020020,
0,
20020020,
0,
40040060,
000000000000000000000008000000000000000000000000, //33
#GOGOSTART
1212,
1210,
1212,
1114,
11102020,
11102020,
11111110,
500000000000000000000000000000000000000008000000, //41
#GOGOEND
11,
1012,
11,
1012,
1012,
1012,
3030030030000000,
3030030030000000, //49
#GOGOSTART
2222,
20202120,
2222,
2220,
2222,
20202120,
33,
600000000000000000000000000008000000000000000000, //57
2222,
20202120,
2222,
2220,
500000000000000000000000000000000008000000000000,
600000000000000000000000000000000008000000000000,
3030030030000000,
3030030030000000, //65
#GOGOEND
7,
0,
8, //68
#END

COURSE:Easy
LEVEL:3
BALLOON:6,4,4,11
SCOREINIT:860,9640
SCOREDIFF:425
#START
#BARLINEOFF
0, //0
#BARLINEON
22,
0,
22,
0,
22,
0,
2007,
0008, //8
10000003,
03,
10001003,
0,
10000003,
03,
10001006,
000000000000000000000000000008000000000000000000, //16
11,
12,
11,
12,
12,
12,
33,
70000800, //24
3,
22,
0,
22,
0,
22,
0,
4006,
000000000000000000000008000000000000000000000000, //33
#GOGOSTART
11,
11,
11,
1130,
11,
2220,
1111,
500000000000000000000000000008000000000000000000, //41
#GOGOEND
11,
12,
11,
12,
12,
12,
33,
70000800, //49
#GOGOSTART
22,
2220,
22,
2220,
22,
2220,
33,
600000000000000000000000000008000000000000000000, //57
22,
2220,
22,
2220,
500000000000000000000000000008000000000000000000,
600000000000000000000000000008000000000000000000,
33,
33, //65
#GOGOEND
7,
0,
8, //68
#END
