//TJADB Project
TITLE:Dr. WILY STAGE 1
TITLEJA:Dr.WILY STAGE 1
SUBTITLE:--Takashi Tateishi/Megaman 2
SUBTITLEJA:「ロックマン2 Dr.ワイリーの謎」より
BPM:150
WAVE:Dr. WILY STAGE 1.ogg
OFFSET:-2.019
DEMOSTART:8.818 //Shinuchi:
5960/3800/2420/1550

COURSE:Oni
LEVEL:8
BALLOON:7
SCOREINIT:540,1630
SCOREDIFF:135
#START
100100100000100100000500000000000000000008000000,
100100100000100100000500000000000000000008000000,
1101022011010220,
0101011170000080,
#BARLINEOFF
#MEASURE 1/4
0, //5
#BARLINEON
#MEASURE 4/4
#BPMCHANGE 180
1022202220100012,
2022201000222020,
0012202220100020,
0020002000112000,
0012202220100020,
0020002000112010,
000000100000200000200000500000000008000000100000,
01221044, //13
0012202220100012,
2022201000222020,
0012202220100020,
0020002000112000,
0012202220100020,
0020002000112010,
000000100000200000200000500000000008000000100000,
01221033, //21
0022202220122210,
0022201020112010,
1022202220112210,
1022201000222010,
1022202220122210,
0022201020112010,
1022202220102010,
000000200200200000200000500000000000000008000000, //29
1012202220102011,
1022201110222010,
1022202220102011,
1022201110222010,
1012202220102011,
1022201110222010,
0010202010222010,
0010202010222030, //37
0010201110102012,
1010202211102212,
1010201110102012,
1010201122102211,
1010201110102012,
1010202211102212,
1010201110102012,
1010201110102030, //45
0012202220122210,
0022201020112010,
1022202220112210,
1022201000222010,
1022202220122210,
0022201020112010,
1022202220102010,
000000200200200000200000500000000008000000300000, //53
#GOGOSTART
0022201010002030,
03030304,
0040400040111040,
0040400040111030,
0022201010002030,
03030300,
300000300000300000500000000000000000000000000008,
0011200010102000, //61
#GOGOEND
1022202220100012,
2022201000222020,
0012202220100020,
0020002000112000,
0012202220100020,
0020002000112010,
000000100000200000200000500000000008000000100000,
01221044, //69
0012202220100012,
2022201000222020,
0012202220100020,
0020002000112000,
0012202220100020,
0020002000112010,
000000100000200000200000500000000008000000100000,
#MEASURE 7/8
0122100, //77
#BARLINEOFF
#MEASURE 4/4
#BPMCHANGE 112.5
#SCROLL 6.9
3,
#SCROLL 1
0,
0, //80
#END

COURSE:Hard
LEVEL:7
BALLOON:
SCOREINIT:680,2570
SCOREDIFF:190
#START
0,
0,
0,
0,
#BARLINEOFF
#MEASURE 1/4
0, //5
#BARLINEON
#MEASURE 4/4
#BPMCHANGE 180
1022202020100022,
22210222,
0022202020100020,
02020200,
0022202020100020,
02020201,
01221001,
01221044,
0022202020100022,
22210222,
0022202020100020,
02020200,
0022202020100020,
02020201,
01221001,
01221033, //21
00200021,
01010100,
10201120,
11210112,
10200021,
01010101,
00201121,
000000200000200000200000500000000008000000000000,
1022202020100020,
02010101,
0022202020100020,
02010101,
0022202020100020,
02010101,
01221001,
01221033, //37
00201021,
01201122,
10201021,
01201120,
10201121,
0212,
500000000000000000000000000000000008000000000000,
500000000000000000000008000000000000300000300000,
0022202020102010,
01210121,
2022202020102010,
22220111,
1022202020102010,
01210121,
2022202020102010,
03344003, //53
#GOGOSTART
0022201010002010,
01010103,
04404003,
04404021,
0022201010002010,
01010100,
500000000000000000000000000000000000000000000008,
0, //61
#GOGOEND
1022202020100022,
22210222,
0022202020100020,
02020200,
0022202020100020,
02020201,
01221001,
01221044,
0022202020100022,
22210222,
0022202020100020,
02020200,
0022202020100020,
02020201,
01221001,
#MEASURE 7/8
0122100, //77
#BARLINEOFF
#MEASURE 4/4
#BPMCHANGE 112.5
#SCROLL 6.9
3,
#SCROLL 1
0,
0, //80
#END

COURSE:Normal
LEVEL:6
BALLOON:6
SCOREINIT:810,4180
SCOREDIFF:250
#START
0,
0,
0,
0,
#BARLINEOFF
#MEASURE 1/4
0, //5
#BARLINEON
#MEASURE 4/4
#BPMCHANGE 180
11101100,
10110222,
01101102,
02020200,
01101102,
02020205,
000000000000000000000008000000000000000000500000,
000000000000000000000008000000000000400000400000,
01101100,
10110222,
01101102,
02020200,
01101102,
02020205,
000000000000000000000008000000000000000000500000,
000000000000000000000008000000000000400000400000, //21
00000011,
01010100,
10001100,
22220111,
10000011,
01010101,
00001111,
02222000,
10000021,
01010101,
00000021,
01010101,
00001111,
00000005,
000000000000000000000008000000000000000000500000,
000000000000000000000008000000000000300000300000, //37
0202,
00201120,
1202,
00201120,
1202,
00201120,
500000000000000000000000000000000008000000000000,
500000000000000000000008000000000000300000300000,
00000021,
01020200,
10001100,
22220111,
10000021,
01020201,
00001117,
00008003, //53
#GOGOSTART
01111021,
01010103,
04404003,
04404003,
01111021,
01010100,
500000000000000000000000000000000000000000000008,
0, //61
#GOGOEND
11101100,
10110222,
01101102,
02020200,
01101102,
02020205,
000000000000000000000008000000000000000000500000,
000000000000000000000008000000000000400000400000, //69
01101100,
10110222,
01101102,
02020200,
01101102,
02020205,
000000000000000000000008000000000000000000500000,
#MEASURE 7/8
000000000000000000000008000000000000000000, //77
#BARLINEOFF
#MEASURE 4/4
#BPMCHANGE 112.5
#SCROLL 6.9
3,
#SCROLL 1
0,
0, //80
#END

COURSE:Easy
LEVEL:4
BALLOON:5
SCOREINIT:700,6620
SCOREDIFF:260
#START
0,
0,
0,
0,
#BARLINEOFF
#MEASURE 1/4
0, //5
#BARLINEON
#MEASURE 4/4
#BPMCHANGE 180
11,
1102,
00101001,
01010100,
00101001,
01010105,
000000000000000000000008000000000000000000500000,
000000000000000000000008000000000000000000300000,
0110,
1102,
00101001,
01010100,
00101001,
01010105,
000000000000000000000008000000000000000000500000,
000000000000000000000008000000000000000000300000, //21
0002,
0202,
0202,
0201,
1002,
0202,
0202,
0440,
10000001,
01010101,
00000001,
01010101,
00000001,
00000005,
000000000000000000000008000000000000000000500000,
000000000000000000000008000000000000000000300000, //37
0202,
0212,
0202,
0212,
0202,
0212,
500000000000000000000000000008000000000000000000,
500000000000000000000000000008000000000000100000,
00000001,
01020200,
11,
2,
10000001,
01020201,
00001007,
00008003, //53
#GOGOSTART
00101001,
01010103,
00404003,
00404003,
00101001,
01010100,
500000000000000000000000000000000000000000000008,
0, //61
#GOGOEND
11,
1102,
00101001,
01010100,
00101001,
01010105,
000000000000000000000008000000000000000000500000,
000000000000000000000008000000000000000000300000,
0110,
1102,
00101001,
01010100,
00101001,
01010105,
000000000000000000000008000000000000000000500000,
#MEASURE 7/8
000000000000000000000008000000000000000000, //77
#BARLINEOFF
#MEASURE 4/4
#BPMCHANGE 112.5
#SCROLL 6.9
3,
#SCROLL 1
0,
0, //80
#END
