//TJADB Project
TITLE:Yubisaki Kara Hajimaru Monogatari
TITLEJA:指先からはじまる物語
SUBTITLE:--Yuu Kahara/Shingun~Destroy!
SUBTITLEJA:郁原ゆう「しんぐんデストロ〜イ!」より
BPM:190
WAVE:Yubisaki Kara Hajimaru Monogatari.ogg
OFFSET:-2.625
DEMOSTART:49.963 //Shinuchi:
6160/4570/2940/1260

COURSE:Oni
LEVEL:8
BALLOON:10,3
SCOREINIT:420,1300
SCOREDIFF:98
#START
2020101020202110,
2111102111102000,
12121212,
1010221022102010,
12121212,
1020221022102010, //6
0010201120112010,
0010221020001020,
1110111011201120,
7008,
1022201000102010,
1110200010102000,
1022101000102010,
1110200010202000, //14
3022203022203000,
1010201011102000,
3011103000202010,
1110201022202010,
1022201000102010,
1110200010102000,
1022101000102010,
1110200010202000, //22
3022203022203000,
1010201011201000,
1022102210221022,
1011201022202002,
1010200210102002,
1010200212021120,
1010221022102202,
1010200120101202, //30
1010200210102002,
1010200212021120,
2211102211102211,
11104000,
1010221010102210,
1020221010202211,
2211221111221122,
22708000, //38
#GOGOSTART
1011101110111011,
1011101110111011,
2011201120112020,
1111201011112010,
1011101110111022,
2022202220222022,
1111222210100030,
2010201022222010, //46
1011101110111011,
1011101110111011,
2011201120112020,
1111201011112010,
1011101110111022,
1022102210101011,
2011101120111011,
2011221122122030, //54
#GOGOEND
02202222,
02202222,
02202222,
0020202220202020,
0022202000222020,
0022202000222020,
500000000000000000000008000000200000200200200000,
500000000000000000000000000000000008000000000000,
100200200200100200202020200000000000000000000000, //63
10110120,
1121,
10221021,
0010202210102022,
#GOGOSTART
1011101110111022,
2022202220222022,
#GOGOEND
1111222210100030,
2010201022222010, //71
#GOGOSTART
1011101110111011,
1011101110111011,
2011201120112020,
1111201011112010,
1011101110111022,
1022102210101011,
2011101120111011,
2011221122122030, //79
0020200020002022,
22200022,
02202022,
0020202000002222,
5,
0,
0,
000000000000000000000000000000000000000000000008, //87
#GOGOEND
#BPMCHANGE 172.87
#SCROLL 1.1
0,
#BPMCHANGE 156.46
#SCROLL 1.15
0,
#BPMCHANGE 144.87
#SCROLL 1.2
0,
#BPMCHANGE 126.58
#SCROLL 1.3
222000300000000000000000000000000000000000000000,
0, //92
#END

COURSE:Hard
LEVEL:4
BALLOON:12,8,8,8,20
SCOREINIT:670,3300
SCOREDIFF:173
#START
0,
0,
1111,
11221122,
1111,
11221120, //6
10111010,
20222022,
500000000000000000000000000000000008000000000000,
3,
10110110,
1122,
10110110,
1122, //14
11122230,
0222,
22230000,
0,
10110110,
1122,
10110110,
1122, //22
11122230,
0222,
12121212,
3,
20220220,
2111,
11011010,
1022, //30
20220220,
2111,
10110103,
0,
10210210,
10120120,
11111110,
3300, //38
#GOGOSTART
10111010,
1120,
10111022,
0,
10101102,
20220220,
11111103,
0, //46
10111010,
1120,
10111022,
0,
10101122,
10101122,
1122,
10112209, //54
#GOGOEND
0009,
8,
0303,
0303,
0404,
0303,
0404,
0303,
4, //63
10110010,
1120,
20202022,
0,
#GOGOSTART
10101102,
20220220,
#GOGOEND
11111103,
0, //71
#GOGOSTART
10111010,
1120,
10111022,
0,
10101122,
10101122,
1122,
10112203, //79
00000007,
000000000000000080000700,
000000000000000080000700,
000000000000000080000000,
5,
000000000000000000000000000000000008000000000000,
9,
09, //87
#GOGOEND
#BPMCHANGE 172.87
#SCROLL 1.1
8,
#BPMCHANGE 156.46
#SCROLL 1.15
0,
#BPMCHANGE 144.87
#SCROLL 1.2
0,
#BPMCHANGE 126.58
#SCROLL 1.3
220300000000000000000000,
0, //92
#END

COURSE:Normal
LEVEL:3
BALLOON:7,7,8,7,6,6,6,6,15
SCOREINIT:750,6040
SCOREDIFF:225
#START
0,
0,
11,
1110,
11,
1110, //6
1110,
2220,
500000000000000000000000000000000008000000000000,
3,
11,
1110,
11,
1110, //14
30030030,
0,
30030000,
0,
11,
1110,
11,
1110, //22
30030030,
0,
3333,
3,
2,
0222,
2,
2, //30
2,
0222,
500000000000000000000000000008000000000000300000,
0,
1122,
1122,
9009,
8, //38
#GOGOSTART
1111,
1110,
20202033,
0,
1110,
2220,
70000008,
0, //46
1111,
1110,
20202033,
0,
11,
10101033,
0,
20201109, //54
#GOGOEND
0009,
8,
0303,
0303,
0404,
0303,
0404,
0303,
0, //63
11,
1110,
20202033,
0,
#GOGOSTART
1111,
2222,
#GOGOEND
70000008,
0, //71
#GOGOSTART
1111,
1110,
20202033,
0,
11,
10101033,
0,
20201107, //79
000000000000000080000700,
000000000000000080000700,
000000000000000080000700,
000000000000000080000000,
5,
000000000000000000000000000000000008000000000000,
9,
09, //87
#GOGOEND
#BPMCHANGE 172.87
#SCROLL 1.1
8,
#BPMCHANGE 156.46
#SCROLL 1.15
0,
#BPMCHANGE 144.87
#SCROLL 1.2
0,
#BPMCHANGE 126.58
#SCROLL 1.3
03000000,
0, //92
#END

COURSE:Easy
LEVEL:3
BALLOON:5,5,7,5,15
SCOREINIT:680,8060
SCOREDIFF:263
#START
0,
0,
11,
500000000000000000000000000008000000000000000000,
11,
1, //6
12,
12,
500000000000000000000000000008000000000000000000,
3,
1,
11,
1,
11, //14
30030030,
0,
30030000,
0,
1,
11,
1,
11, //22
30030030,
0,
33,
3,
2,
22,
2,
2, //30
2,
22,
20000003,
0,
11,
1011,
9009,
8, //38
#GOGOSTART
11,
1110,
10101003,
0,
11,
22,
70000008,
0, //46
11,
1110,
10101003,
0,
11,
10101003,
0,
20202009, //54
#GOGOEND
0009,
8,
0303,
0303,
0404,
0303,
0404,
0303,
0, //63
11,
1110,
20202003,
0,
#GOGOSTART
11,
22,
#GOGOEND
70000008,
0, //71
#GOGOSTART
11,
1110,
10101003,
0,
11,
10101003,
0,
20202005, //79
0,
000000000000000000000000000000000008000000000000,
5,
000000000000000000000000000000000008000000000000,
5,
000000000000000000000000000000000008000000000000,
9,
09, //87
#GOGOEND
#BPMCHANGE 172.87
#SCROLL 1.1
8,
#BPMCHANGE 156.46
#SCROLL 1.15
0,
#BPMCHANGE 144.87
#SCROLL 1.2
0,
#BPMCHANGE 126.58
#SCROLL 1.3
03000000,
0, //92
#END
