//TJADB Project
TITLE:Houkago☆Magician
TITLEJA:ほうかご☆マジシャン
SUBTITLE:--Marine Base
SUBTITLEJA:まりんべーす
BPM:160
WAVE:Houkago Magician.ogg
OFFSET:-1.808
DEMOSTART:43.253 //Shinuchi:
5200/3190/2150/1490

COURSE:Oni
LEVEL:8
BALLOON:7,5,7,5,5,5,5,7,5,7,5,12
SCOREINIT:540,1700
SCOREDIFF:120
#START
70080101,
0010001120112070,
0080001122102011,
1020101020111110,
70080101,
0010001120112070,
0080002211202011,
1020101020112222, //8
1021102210202022,
1021102210202030,
03070803,
03000001,
00100121,
01110121,
0010221000202010,
0010221000202010, //16
00211211,
00211211,
0000221000201010,
0010221000102010,
00020111,
00020111,
00020111,
01020201,
0000101122100010,
0000101122100011,
1110201111102030,
03030007, //28
#GOGOSTART
000000080000000000100100100000100000200000100100,
1010201000102011,
1010201010112011,
2211221020201070,
000000080000000000100100100000100000200000100100,
1010201000202011,
1010201020112022,
2211112220102011,
1011201020112010,
2011201020112010,
2011201020112030,
03030000, //40
#GOGOEND
70080101,
0010001120112070,
0080001122102011,
1020101020111110,
30000303,
0030002022102010,
0011111022102010,
0020111022111040, //48
0030000000101011,
1010111010101030,
0040002220202022,
2022202220202040,
0030000000101011,
1010111010101030,
0040202020222040,
00010000, //56
0000002000111010,
#GOGOSTART
0010201110102011,
1010221022102011,
2011201010201110,
0200201000102011,
1010201000202011,
1010201020112022,
2211221120102011,
1011201020112010,
2011201020112010,
2011201020112030,
03030040, //68
#GOGOEND
70080101,
0010001120112070,
0080001122102011,
1020101020111110,
30000303,
0040000012102010,
0010222012101010,
0020111020102222, //76
1021102210202022,
1021102210202030,
000300000222202020200300,
03022207,
08,
0,
0, //83
#END

COURSE:Hard
LEVEL:6
BALLOON:7
SCOREINIT:530,2330
SCOREDIFF:145
#START
11202101,
0010000022202020,
0010000022202010,
02102100,
11202101,
0010000022202020,
0010000022202010,
02102100, //8
1011101010111010,
01010104,
04000003,
03000001,
01110121,
01110121,
02220111,
02220221, //16
00201121,
00201121,
00210121,
01110221,
00020002,
00020002,
00000221,
01010001,
0000200011100010,
0000200011100050,
000008000000000000100100100000100000100000300000,
03030001, //28
#GOGOSTART
01220211,
01220211,
01210101,
0011101010202010,
01220211,
01220211,
01210101,
0011101010202010,
0010201110102010,
0010201110102010,
0010201110102030,
03030000, //40
#GOGOEND
11202101,
0010000022202020,
0010000022202020,
02102100,
30000303,
0030000022202010,
0010000011101020,
0020222020100030, //48
03001221,
22122103,
03002112,
11211203,
03001221,
22122103,
03002114,
00010001, //56
00020211,
#GOGOSTART
01220211,
01210101,
0022202020202010,
00120211,
01220211,
01211101,
0022202020202010,
0010201110102010,
0010201110102010,
0010201110102030,
03030000, //68
#GOGOEND
11202101,
0010000022202020,
0010000022202020,
02102100,
30000303,
03002221,
0010000022202010,
02102100, //76
1011101010111010,
01010104,
04000003,
03000009,
000000000000000009000000800000000000000000000000,
0,
0, //83
#END

COURSE:Normal
LEVEL:6
BALLOON:5
SCOREINIT:650,3610
SCOREDIFF:195
#START
10100105,
000000000008000000000000200000000000000000500000,
000000000008000000000000200000000000200000200000,
00101100,
10100105,
000000000008000000000000200000000000000000500000,
000000000008000000000000200000000000200000200000,
00101100, //8
10201110,
10201003,
03000003,
03000001,
00200111,
00200111,
00220111,
00220201, //16
00200111,
00200111,
00200111,
02020111,
00020002,
00020000,
00020201,
01010001,
00201101,
00201105,
000000000000000000000008000000000000000000300000,
03030001, //28
#GOGOSTART
00020111,
02020111,
01010102,
02202001,
00020111,
02020111,
01010102,
02202001,
01110111,
01010101,
01010103,
03030000, //40
#GOGOEND
10100105,
000000000008000000000000200000000000000000500000,
000000000008000000000000200000000000200000200000,
00101100,
30000303,
03002001,
01000022,
01101103, //48
03000111,
01101103,
03001011,
01010103,
03000111,
01101103,
03001004,
00010000, //56
00020001,
#GOGOSTART
02020111,
01010102,
02202001,
00020111,
02020111,
01010102,
02202001,
01110111,
01010101,
01010103,
03030000, //68
#GOGOEND
10100105,
000000000008000000000000200000000000000000500000,
000000000008000000000000200000000000200000200000,
00101100,
30000303,
03002022,
01002022,
00101100, //76
10201110,
10201104,
04000003,
03000009,
000000000000000009000000800000000000000000000000,
0,
0, //83
#END

COURSE:Easy
LEVEL:4
BALLOON:4,6,8,5
SCOREINIT:620,6560
SCOREDIFF:208
#START
10000105,
000000000000000008000000000000000000000000500000,
000000000000000008000000000000000000000000100000,
00100100,
10000105,
000000000000000008000000000000000000000000500000,
000000000000000008000000000000000000000000100000,
00100100, //8
1110,
10101003,
03000003,
03000001,
0101,
0101,
0202,
0202, //16
0101,
0101,
0202,
0202,
00020002,
00020000,
00000001,
01010001,
00000101,
00100105,
000000000000000000000008000000000000000000300000,
03030001, //28
#GOGOSTART
00010001,
01010001,
00010105,
000000000000000000000008000000000000000000100000,
00010001,
01010001,
00010105,
000000000000000000000008000000000000000000100000,
00010001,
00010002,
00020003,
03030000, //40
#GOGOEND
10000105,
000000000000000008000000000000000000000000500000,
000000000000000008000000000000000000000000100000,
00100100,
30000303,
03002001,
01000001,
00100103, //48
03007000,
00008003,
03007000,
00008003,
03007000,
00008003,
03000004,
0, //56
00020001,
#GOGOSTART
01010001,
00010105,
000000000000000000000008000000000000000000100000,
00010001,
01010001,
00010105,
000000000000000000000008000000000000000000100000,
00010001,
00010002,
00020003,
03030000, //68
#GOGOEND
10000105,
000000000000000008000000000000000000000000500000,
000000000000000008000000000000000000000000100000,
00100100,
30000303,
03002001,
01002001,
00100100, //76
1111,
10101004,
04000003,
03000009,
000000000000000009000000800000000000000000000000,
0,
0, //83
#END
