//TJADB Project
TITLE:Shounin YokkQ
TITLEJA:承認欲Q
SUBTITLE:--Kaneko Chiharu feat. Haxchi
SUBTITLEJA:かねこちはる feat.はぁち
BPM:226
WAVE:Shounin YokkQ.ogg
OFFSET:-9.213
DEMOSTART:66.540

COURSE:Oni
LEVEL:10
BALLOON:7,12,6
SCOREINIT:380
SCOREDIFF:80
#START
211211211211,
201010201010700000000800,
12121121,
1020102011102000,
12121121,
1020102011202000,
12121121,
1020102011102020,
12121121,
1020102011202022,
12121121,
1020102011112222,
1,
100000122122,
10102012,
100200100000102020102020,
1,
44,
34,
34,
10101210,
1020201011202010,
0010200011112010,
01202020,
10101210,
1020201022102010,
0010200011112010,
0010200021112111,
21221222,
1020202021112010,
0010200011112010,
0010200011112010,
0010202210221022,
1022102210221020,
1000101120200010,
0010202011200010,
01201220,
1020002010102220,
10101220,
1020002010222022,
10101220,
1020002010102220,
12021120,
111222111222,
10201121,
00020122,
10201121,
0010102000122210,
0012221000122210,
02210102,
03403403,
0011202010222050,
000000000000000000000000000000000000000008000000,
,
#GOGOSTART
1020102010221020,
1120102210201020,
1020112010221020,
1120102210201020,
10102220
#SCROLL 3
30
#SCROLL 1
201020,
10102220
#SCROLL 3
30
#SCROLL 1
201020,
1010222010200010,
004000403000
#SCROLL 3
4000,
#SCROLL 1
1020112010221020,
1120102210221020,
1020112010221020,
1120102210221020,
1120112010221020,
1120102000100050,
000000000000000000000000000000000000000008000000,
7008,
1120201120201120,
#BPMCHANGE 223.19
2300,
#GOGOEND
#MEASURE 8/4
#BPMCHANGE 226
#SCROLL 0.5
100000000000000000000000200000002000000020000000200000000000000020000000200200200200200200200200,
100000000000000000000000200000002000000020000000200000000000000020000000200200200200200200200200,
100000000000000000000000200000002000000020000000200000000000000020000000200200200200200200200200,
#BPMCHANGE 227.43
100000000000000000000000200000002000000020000000200000000000000020000000200200200200200200200200,
#MEASURE 4/4
#BPMCHANGE 226
#SCROLL 1
70081212,
1010202010201120,
12121122,
1020101020201120,
12121122,
1010201020201120,
3003004030030040,
3003004030030040,
6,
000000000000000000000000000000000000000008000000,
4,
2,
3,
200000122212,
#GOGOSTART
1020112010221020,
1120102210201120,
10102220
#SCROLL 3
30
#SCROLL 1
201020,
1010222
#SCROLL 3
030
#SCROLL 1
201020,
1010222010200010,
040430
#SCROLL 3
40,
#SCROLL 1
1020112010221020,
1120102210221020,
1020112010221020,
1120102210221020,
1120112010221020,
1120102000100050,
000000000000000000000000000000000000000008000000,
2222122210201110,
1120201120201120,
#MEASURE 3/4
201120202000,
#MEASURE 4/4
2210102210102210,
1300,
#GOGOEND
102011221010
#SCROLL 3
4000,
#SCROLL 1
102011211010
#SCROLL 3
4000,
#SCROLL 1
102011221010
#SCROLL 3
4000,
#SCROLL 1
104000403000
#SCROLL 3
4000,
#SCROLL 1
102011221010
#SCROLL 3
4000,
#SCROLL 1
102011211010
#SCROLL 3
4000,
#SCROLL 1
111111111110
#SCROLL 3
4000,
#SCROLL 1
104000403000
#SCROLL 3
4000,
#SCROLL 1
33404033,
40403400,
000000000000000000200200200200200200200020002000,
202020200200200200200020,
000200000200000200000020,
#MEASURE 6/4
000000000000002000000000000000000000100100200100000000000000000000000000,
#MEASURE 4/4
400000000211,
1,
#END

COURSE:Hard
LEVEL:7
BALLOON:15,10,10
SCOREINIT:410
SCOREDIFF:95
#START
7,
0008,
12121210,
12121120,
12121210,
12121220,
12121210,
12121120,
12121210,
12121220,
12121212,
12121120,
3,
4,
6,
000000000000000000000000000000000000000008000000,
,
,
,
,
10101210,
10101221,
01201121,
01202020,
10101210,
12101221,
01201121,
01202020,
12101210,
11221021,
01201121,
01201121,
01222222,
22222222,
30330304,
00440406,
000000000000000000000000000000000008000000000000,
10201120,
10201120,
10201122,
10201120,
10201120,
10201120,
111200111200,
10201201,
00020122,
10201105,
000000000000000008000000000000100000100000200000,
01120112,
01120202,
03403404,
02221116,
000000000000000000000000000000000000000008000000,
,//54
#GOGOSTART
12121212,
11201220,
12121212,
11201220,
11220020,
11220020,
10220201,
04043040,
12121212,
11201220,
12121212,
11201220,
12120220,
10220109,
0009,
8,
11122211,
1300,//72
#MEASURE 8/4
#SCROLL 0.5
#GOGOEND
100222202200,
100222202200,
100222202200,
100222202200,
#MEASURE 4/4
#SCROLL 1
30201212,
11201122,
10201212,
11201122,
10201212,
11201122,
3003003030030030,
3003003030030030,
6,
000000000000000000000000000000000000000008000000,
,
,
3,
4,//90
#GOGOSTART
12121212,
11201220,
11220020,
11220020,
10220201,
04043040,
12121212,
11201220,
12121212,
11201220,
12120220,
10220109,
0009,
8,
11122211,
#MEASURE 3/4
122200,
#MEASURE 4/4
22211122,
2300,//108
#GOGOEND
12121140,
12121140,
12121140,
04043040,
12121140,
12121140,
1110111011104000,
04043040,
33404033,
40403600,
,
,
,
#MEASURE 6/4
000000000000000000000000000000000000000000000008000000000000000000000000,
#MEASURE 4/4
300000000211,
1,
,
#END

COURSE:Normal
LEVEL:6
BALLOON:11,6,4,7,5,5,5,5,4,7,4,4
SCOREINIT:590,2640
SCOREDIFF:130
#START
7,
0008,
1212,
1210,
1212,
1210,
1212,
1210,
1212,
1210,
1212,
1210,
3,
4,
6,
000000000000000000000000000000000000000008000000,
,
,
,
,
1110,
10201003,
0202,
0222,
1110,
10201003,
0202,
0222,
1212,
10201003,
00000003,
00000003,
0222,
2222,
30030304,
00400407,
0008,
1100,
1100,
1100,
2200,
2200,
2200,
500000000000000000000000000000000008000000000000,
1202,
1202,
10201003,
00000004,
00040004,
00040404,
03003004,
00004006,
000000000000000000000000000000000000000008000000,
,//54
#GOGOSTART
10101011,
1212,
10101011,
1212,
1202,
1202,
30030307,
0008,
10101011,
1212,
10101011,
1212,
10200400,
30030309,
0009,
8,
30030030,
0300,//72
#MEASURE 8/4
#SCROLL 0.5
#GOGOEND
1078,
1078,
1078,
1078,
#MEASURE 4/4
#SCROLL 1
3,
1212,
1212,
1210,
1212,
1212,
33,
33,
6,
000000000000000000000000000000000000000008000000,
,
,
3,
4,//90
#GOGOSTART
10101011,
1212,
1202,
1202,
30030307,
0008,
10101011,
1212,
10101011,
1212,
10200400,
30030309,
0009,
8,
30030030,
#MEASURE 3/4
030000,
#MEASURE 4/4
40040040,
0300,//108
#GOGOEND
1212,
10201120,
1212,
07000080,
1212,
10201120,
1212,
07000080,
3003,
06,
,
,
,
#MEASURE 6/4
000000000000000000000000000000000000000000000008000000000000000000000000,
#MEASURE 4/4
3,
,
,
#END

COURSE:Easy
LEVEL:4
BALLOON:7,4,3,5,3,3,3,3,3,5,3,3
SCOREINIT:510,4140
SCOREDIFF:108
#START
7,
0008,
1,
,
1,
2,
1,
,
1,
2,
1,
,
3,
4,
6,
000000000000000000000000000000000000000008000000,
,
,
,
,
11,
10201003,
,
,
11,
10201003,
,
,
1212,
10201003,
00000003,
00000003,
,
,
30000004,
00000007,
0008,
11,
1,
2,
1,
11,
1,
500000000000000000000000000008000000000000000000,
1,
1,
10001003,
00000004,
00040004,
00040404,
00000003,
00003006,
000000000000000000000000000000000000000008000000,
,//54
#GOGOSTART
1110,
11,
1110,
11,
3,
4,
30030307,
0008,
1110,
1110,
1110,
1110,
2200,
30030309,
0009,
8,
30030030,
0300,//72
#MEASURE 8/4
#SCROLL 0.5
#GOGOEND
1078,
1078,
1078,
1078,
#MEASURE 4/4
#SCROLL 1
3,
11,
1,
2,
1,
11,
33,
33,
6,
000000000000000000000000000000000000000008000000,
,
,
3,
,//90
#GOGOSTART
1110,
11,
3,
4,
30030307,
0008,
1110,
1110,
1110,
1110,
2200,
30030309,
0009,
8,
30030030,
#MEASURE 3/4
030000,
#MEASURE 4/4
40040040,
0300,//108
#GOGOEND
1110,
1110,
1110,
07000080,
1110,
1110,
1110,
07000080,
3003,
06,
,
,
,
#MEASURE 6/4
000000000000000000000000000000000000000000000008000000000000000000000000,
#MEASURE 4/4
3,
,
,
#END
