//TJADB Project
TITLE:Canon -Synchronica Remix-
TITLEJA:カノン (シンクロニカ Remix)
SUBTITLE:--Takeshi Nakatsuka/Synchronica
SUBTITLEJA:「シンクロニカ」より
BPM:224
WAVE:Canon -Synchronica Remix-.ogg
OFFSET:-2.221
DEMOSTART:88.253 //Shinuchi:
6170/4160/2500/1590

COURSE:Oni
LEVEL:8
BALLOON:14,3,42,30,22
SCOREINIT:560,1810
SCOREDIFF:135
#START
#MEASURE 6/4
100200101201002200,
#MEASURE 4/4
102100101201,
001203000300,
#MEASURE 6/4
100200101201002200,
#MEASURE 4/4
102100101201,
002002002002,
004004004004,
002222202100, //8
100200101201,
000201000100,
100200101201,
000203000300,
100200101201,
000201000100,
100200101201,
002002222202,
7,
008000003000, //18
100200102001,
001201101200,
100202102001,
000201102200,
100202102001,
001200100200,
200201102005,
000000000000000000000000000008000000000000000000, //26
100201102003,
001200100200,
100201102003,
001200102202,
100202102001,
001201202003,
001203001203,
002100203000, //34
#GOGOSTART
200100102001,
002101200202,
202101102202,
202101002003,
002101202022,
202011100100,
201101102100,
112101112100, //42
111111200200,
102003000211,
200202102001,
002202102100,
000300003000,
300003000300,
#GOGOEND
04,
6,
000000000008000000000000200020002000200020002000, //51
#GOGOSTART
100201001200,
101201101201,
001201202001,
001201202003,
001200202003,
002102101003,
002102101005,
000000000000000000000000000000000008000000000000, //59
#GOGOEND
#BPMCHANGE 222.5
22,
#BPMCHANGE 224
200000200002,
000200202200,
#BPMCHANGE 225.52
202100201003,
#BPMCHANGE 224
#GOGOSTART
000100202002,
002101202100,
300000300003,
000300222222,
#GOGOEND
#BARLINEOFF
#MEASURE 2/4
78, //68
#BARLINEON
#MEASURE 6/4
100200101201002200,
#MEASURE 4/4
102100101201,
001203000300,
#MEASURE 6/4
100200101201002200,
#MEASURE 4/4
102100101201,
002002002002,
002002002002,
004004004004,
004004004004,
#BPMCHANGE 124
#SCROLL 1.8
500000000000000000000000000000000000000008000000, //78
#SCROLL 1
1012101210112222,
1021202120212222,
1021202120112212,
1021202212021222,
1021202122112212,
2012201122112212,
1022102210112210,
2222222222111111, //86
7,
00000008,
7,
000800311422,
112222101222,
101212212100,
#MEASURE 6/4
112222101222101212, //93
#MEASURE 4/4
300000000000300000000000500000000008000000202000,
7,
8,
0, //97
#END

COURSE:Hard
LEVEL:6
BALLOON:10,30,22,16
SCOREINIT:670,2950
SCOREDIFF:173
#START
#MEASURE 6/4
100200101001000200,
#MEASURE 4/4
100200101001,
000003000300,
#MEASURE 6/4
100200101001000200,
#MEASURE 4/4
100200101001,
002002002002,
004004004004,
0, //8
100200101001,
0012,
100200101001,
000003000300,
100200101001,
0012,
100200100201,
002002220200,
7,
008000003000, //18
100000102001,
0120,
100000102001,
0122,
100000102001,
0120,
200200102005,
000000000000000000000000000008000000000000000000, //26
100100200003,
0120,
100000102003,
0120,
100200100001,
000100202003,
000003000003,
000100003000, //34
#GOGOSTART
200100200001,
001100200000,
2120,
101100200000,
002100200200,
101011100100,
2222,
3333, //42
1022,
102001000100,
200200102001,
001101100000,
000300003000,
300003000300,
#GOGOEND
04,
6,
000000000008000000000000000000000000000000000000, //51
#GOGOSTART
100200100101,
0212,
100200100101,
000200101003,
000100202003,
000100100003,
000100100005,
000000000000000000000000000000000008000000000000, //59
#GOGOEND
#BPMCHANGE 222.5
22,
#BPMCHANGE 224
200000200002,
0220,
#BPMCHANGE 225.52
200000000003,
#BPMCHANGE 224
#GOGOSTART
000200100101,
000200202200,
300000300003,
000000000000300000000000500000000000000000000008,
#GOGOEND
#BARLINEOFF
#MEASURE 2/4
0, //68
#BARLINEON
#MEASURE 6/4
100200101001000200,
#MEASURE 4/4
100200101001,
000003000300,
#MEASURE 6/4
100200101001000200,
#MEASURE 4/4
100200101001,
002002002002,
002002002002,
004004004004,
004004004004,
#BPMCHANGE 124
#SCROLL 1.8
500000000000000000000000000000000000000008000000, //78
#SCROLL 1
10101122,
12101212,
11101122,
12121110,
1011100010101000,
1011100020202000,
1020102010111000,
500000000000000000000000000000000000000008000000, //86
7,
00000008,
7,
000800111222,
101202100202,
100202102100,
#MEASURE 6/4
101202101202100200, //93
#MEASURE 4/4
300000000000300000000000500000000008000000202000,
9009,
8,
0, //97
#END

COURSE:Normal
LEVEL:5
BALLOON:6,6,20,15,10
SCOREINIT:830,5150
SCOREDIFF:265
#START
#MEASURE 6/4
#SCROLL 0.55
100000100001000000,
#MEASURE 4/4
100000100001,
#BARLINEOFF
000003000000,
#BARLINEON
#MEASURE 6/4
100000100001000000,
#MEASURE 4/4
100000100001,
#BARLINEOFF
002002002002,
#BARLINEON
004004004004,
#BARLINEOFF
0, //8
#BARLINEON
11,
#BARLINEOFF
12,
#BARLINEON
11,
#BARLINEOFF
100003000000,
#BARLINEON
11,
#BARLINEOFF
12,
#BARLINEON
100000100001,
#BARLINEOFF
02,
#BARLINEON
7,
#BARLINEOFF
008000003000, //18
#BARLINEON
12,
#BARLINEOFF
1022,
#BARLINEON
12,
#BARLINEOFF
1022,
#BARLINEON
12,
#BARLINEOFF
12,
#BARLINEON
100100100005,
#BARLINEOFF
000000000000000000000000000008000000000000000000, //26
#BARLINEON
12,
#BARLINEOFF
11,
#BARLINEON
100000200003,
#BARLINEOFF
0,
#BARLINEON
11,
#BARLINEOFF
100000000003,
#BARLINEON
000003000003,
#BARLINEOFF
0, //34
#BARLINEON
#GOGOSTART
22,
#BARLINEOFF
2,
#BARLINEON
2220,
#BARLINEOFF
1110,
#BARLINEON
22,
#BARLINEOFF
11,
#BARLINEON
1110,
#BARLINEOFF
33, //42
#BARLINEON
7,
#BARLINEOFF
080000000000000000000000000000000000000000000000,
#BARLINEON
22,
#BARLINEOFF
1110,
#BARLINEON
0300,
#BARLINEOFF
3003,
#GOGOEND
#BARLINEON
04,
#BARLINEOFF
6,
000000000008000000000000000000000000000000000000, //51
#BARLINEON
#GOGOSTART
11,
#BARLINEOFF
1110,
#BARLINEON
22,
#BARLINEOFF
200200200003,
#BARLINEON
000000200003,
#BARLINEOFF
000000200003,
#BARLINEON
000000200006,
#BARLINEOFF
000000000000000000000000000008000000000000000000, //59
#GOGOEND
#BPMCHANGE 222.5
#BARLINEON
2,
#BPMCHANGE 224
#BARLINEOFF
22,
#BARLINEON
2,
#BPMCHANGE 225.52
#BARLINEOFF
200000000003,
#BARLINEON
#BPMCHANGE 224
#GOGOSTART
0,
#BARLINEOFF
11,
#BARLINEON
300000300006,
#BARLINEOFF
000000000000000000000000000000000000000000000008,
#GOGOEND
#MEASURE 2/4
0, //68
#BARLINEON
#MEASURE 6/4
100000100001000000,
#MEASURE 4/4
100000100001,
#BARLINEOFF
000003000000,
#BARLINEON
#MEASURE 6/4
100000100001000000,
#MEASURE 4/4
100000100001,
#BARLINEOFF
002002002002,
#BARLINEON
002002002002,
#BARLINEOFF
004004004004,
#BARLINEON
004004004000,
#BARLINEOFF
#BPMCHANGE 124
#SCROLL 1
500000000000000000000000000000000000000008000000, //78
#BARLINEON
1110,
1110,
1110,
2222,
1210,
1210,
1212,
500000000000000000000000000000000000000008000000, //86
7,
00000008,
7,
0834,
1212,
100200101100,
#MEASURE 6/4
100200100202200200, //93
#MEASURE 4/4
300000000000300000000000500000000008000000000000,
9009,
8,
0, //97
#END

COURSE:Easy
LEVEL:3
BALLOON:4,4,12,8,6
SCOREINIT:700,7630
SCOREDIFF:263
#START
#MEASURE 6/4
#SCROLL 0.55
110,
#MEASURE 4/4
11,
#BARLINEOFF
000004000000,
#BARLINEON
#MEASURE 6/4
110,
#MEASURE 4/4
11,
#BARLINEOFF
020020,
#BARLINEON
040040,
#BARLINEOFF
0, //8
#BARLINEON
11,
#BARLINEOFF
1,
#BARLINEON
11,
#BARLINEOFF
14,
#BARLINEON
11,
#BARLINEOFF
1,
#BARLINEON
11,
#BARLINEOFF
1,
#BARLINEON
7,
#BARLINEOFF
080000, //18
#BARLINEON
1,
#BARLINEOFF
1,
#BARLINEON
11,
#BARLINEOFF
1,
#BARLINEON
1,
#BARLINEOFF
1,
#BARLINEON
100000100005,
#BARLINEOFF
000000000000000000000008000000000000000000000000, //26
#BARLINEON
1,
#BARLINEOFF
1,
#BARLINEON
2,
#BARLINEOFF
4,
#BARLINEON
1,
#BARLINEOFF
100000000003,
#BARLINEON
000003000006,
#BARLINEOFF
000000000000000000000000000008000000000000000000, //34
#BARLINEON
#GOGOSTART
22,
#BARLINEOFF
2,
#BARLINEON
22,
#BARLINEOFF
2,
#BARLINEON
11,
#BARLINEOFF
11,
#BARLINEON
11,
#BARLINEOFF
3, //42
#BARLINEON
7,
#BARLINEOFF
080000000000000000000000000000000000000000000000,
#BARLINEON
22,
#BARLINEOFF
2,
#BARLINEON
0300,
#BARLINEOFF
3,
#GOGOEND
#BARLINEON
04,
#BARLINEOFF
6,
000000000008000000000000000000000000000000000000, //51
#BARLINEON
#GOGOSTART
11,
#BARLINEOFF
1,
#BARLINEON
11,
#BARLINEOFF
200000200003,
#BARLINEON
000000000003,
#BARLINEOFF
000000000003,
#BARLINEON
000000000006,
#BARLINEOFF
000000000000000000000000000008000000000000000000, //59
#GOGOEND
#BARLINEON
#BPMCHANGE 222.5
0,
#BARLINEOFF
#BPMCHANGE 224
0,
#BARLINEON
22,
#BARLINEOFF
#BPMCHANGE 225.52
200000000003,
#BARLINEON
#BPMCHANGE 224
#GOGOSTART
01,
#BARLINEOFF
11,
#BARLINEON
300000300006,
#BARLINEOFF
000000000000000000000000000000000000000000000008,
#GOGOEND
#MEASURE 2/4
0, //68
#BARLINEON
#MEASURE 6/4
110,
#MEASURE 4/4
11,
#BARLINEOFF
000004000000,
#BARLINEON
#MEASURE 6/4
110,
#MEASURE 4/4
11,
#BARLINEOFF
020020,
#BARLINEON
020020,
#BARLINEOFF
040040,
#BARLINEON
040040,
#BARLINEOFF
#BPMCHANGE 124
#SCROLL 1
500000000000000000000000000008000000000000000000, //78
#BARLINEON
11,
1110,
1110,
2022,
21,
2210,
21,
500000000000000000000000000000000000000008000000, //86
7,
00000008,
7,
0830,
1122,
1210,
#MEASURE 6/4
112210, //93
#MEASURE 4/4
300000000000000000000000500000000008000000000000,
9009,
8,
0, //97
#END
