//TJADB Project
TITLE:Shin Garyoutensei
TITLEJA:真・画竜点睛
SUBTITLE:--Kakumi Nishigomi
BPM:134
WAVE:Shin Garyoutensei.ogg
OFFSET:-2.000
DEMOSTART:2.000 //Shinuchi:
4990/3880/2450/1570/1590

COURSE:Edit
LEVEL:9
BALLOON:60
SCOREINIT:550,1770
SCOREDIFF:148
#START
#MEASURE 4/4
500008000000000000000000000000000000000000000000,
333300, //2
#BRANCHSTART r,1,2
#N
#BPMCHANGE 135
#GOGOSTART
1022202011222020,
1122112210104000,
1022202011222020,
1011101110111022,
1022202011212020,
1122112210104000,
1022202011212020,
1112100030004000, //n10
#GOGOEND
1022201022201022,
1022201022201020,
12021202,
1110111011102020,
1022201022201022,
1022201022201020,
1020002210200020,
1122102011112000, //n18
1022021012221020,
1022021012221020,
1220002212200022,
1110111011102020,
1022021012221020,
1022021012221020,
1220201212202010,
1122102011112000, //n26
1110201110004000,
1110201110003040,
1110201110003000,
2222111122112212,
1110201120003000,
1120201120003040,
1220201220004000,
#BPMCHANGE 133.79
1112100030004000,
#MEASURE 1/16
#BPMCHANGE 138.68
#BARLINEOFF
0, //n35
#MEASURE 4/4
#BPMCHANGE 106
#BARLINEON
3004,
7,
0,
00000800,
1222102111203000,
1022102212121000,
1022102212121000,
1222102111203000, //n43
23343040,
1012101210104000,
2030304030004000,
1012112210104000,
43404340,
1012112210104000,
43404340,
#BPMCHANGE 105.06
600000000000000008000000300000000000400000000000, //n51
#BPMCHANGE 135
#GOGOSTART
1022202011222020,
1122112210104000,
1022202011222020,
1011101110111022,
1022202011212020,
1122112210104000,
1022202011212020,
1112100030004000, //n59
#GOGOEND
#E
#BPMCHANGE 135
#GOGOSTART
1011120112011010,
1011120112103000,
1011120112011010,
32323230,
1011120112011010,
1011120112103000,
1011120112011020,
1221100000112000, //e10
#GOGOEND
0011102011011020,
0011102010011010,
0011102011011020,
2112202101103000,
0011102011011020,
1001002010222010,
1001101001101001,
1010011011102220, //e18
0011102011011020,
0011102010011010,
0011102011011020,
2110211201101030,
0011102011011020,
1001002010222011,
1002001200201200,
200000200000200020002000200200200200100000000000, //e26
1001101110004000,
1001101110201110,
1001101110201120,
1221122120202220,
1001101110004022,
1001101110204000,
1110001110004000,
#BPMCHANGE 133.79
2222100020001000,
#MEASURE 1/16
#BPMCHANGE 138.68
#BARLINEOFF
0, //e35
#MEASURE 4/4
#BPMCHANGE 106
#BARLINEON
1001001000004000,
2002002000003000,
11,
1134,
100000000010100000200000000020200000100000000000,
200000200000200000100010000020100000300000000000,
200000200020200000100010000020100000100000000000,
101010100020100000101010200010100000300000000000, //e43
300000000000000000000000000000200020200020100000,
100000000010100000200020000020200000100000000000,
300000000000000000000000100020202020201010100000,
100000000010100000200000200000100000300000000000,
03300330,
100000000010100000200000000020200000100000000000,
200020100000100000200020200020100000100000000000,
#BPMCHANGE 105.06
500000000000000008000000100000000000400000000000, //e51
#BPMCHANGE 135
#GOGOSTART
1001101111201120,
1001102222102210,
1001101111201120,
14141430,
1001102211203000,
1001102222104022,
20201000100001010000202010102000,
1111200000112000, //e59
#GOGOEND
#M
#BPMCHANGE 135
#GOGOSTART
1021021022102010,
1021021011202210,
1021021022102010,
1021021011202210,
1012102022102010,
1122112212103040,
2012102022102010,
1221200030004000, //m10
#GOGOEND
1011011012122010,
1011011012022010,
1011011012122010,
1212201012022010,
1022112210104000,
1012111210203040,
1002102010021020,
1212122110404000, //m18
1022112210104000,
1011221210203040,
1022112210104000,
1212112212121122,
1022112210104000,
1011221210203040,
1021021022102010,
2221222122104000, //m26
1220001220104000,
1210001210203040,
1220001220104000,
1122112222112211,
1220001220104011,
2120102210203040,
1221221220203000,
#BPMCHANGE 133.79
1121200030004000,
#MEASURE 1/16
#BPMCHANGE 138.68
#BARLINEOFF
0, //m35
#MEASURE 4/4
#BPMCHANGE 106
#BARLINEON
1022112100404000,
1021122100404040,
1022112100404000,
32323230,
100100200200100000200000101010100000100000000000,
200200000100200000200000102020200000200000000000,
200000200200100000200000102010100000200000000000,
100100000100100000200000202010100000100000000000, //m43
03333040,
2011201120203040,
03333040,
2211221121112000,
03300330,
2211202122103000,
03300330,
#BPMCHANGE 105.06
111111111111200000300000, //m51
#BPMCHANGE 135
#GOGOSTART
1021021022102210,
1021021011202210,
1021021022102210,
1021021011202210,
1012102022102010,
1122112212103040,
2012102022102010,
1221200010111000, //m59
#GOGOEND
#BRANCHEND
0,
0, //61
#END

COURSE:Oni
LEVEL:9
BALLOON:
SCOREINIT:540,1700
SCOREDIFF:145
#START
#MEASURE 4/4
500008000000000000000000000000000000000000000000,
333300, //2
#BRANCHSTART r,1,2
#N
#BPMCHANGE 135
#GOGOSTART
1021102011201020,
1021102011211020,
1021102011201020,
1022102110111011,
1021102011201020,
1021102011211020,
1021102011201020,
1122100030004000, //n10
#GOGOEND
1011211010122210,
1011211010112210,
1011211010122210,
1222122112111211,
1011211210104000,
1011211210103000,
1021012011210120,
1021112010404000, //n18
1011211210104000,
1011221210103000,
1011221210104000,
1222122112111211,
1011211210104000,
1011211210103000,
1021012011210120,
1021112030004000, //n26
1120001120003000,
2210002210004000,
1120001120003000,
1121112211211122,
1020102110201022,
1120102110201022,
1120102110201000,
#BPMCHANGE 133.79
1112100030003000,
#MEASURE 1/16
#BPMCHANGE 138.68
#BARLINEOFF
0, //n35
#MEASURE 4/4
#BPMCHANGE 106
#BARLINEON
100201100200000200200000,
100201100200000200200200,
100201100200000200200000,
3333,
100100200100200000100000101010100000200000000000,
100000200200100000200000101010100000200000000000,
1022102212121000,
1122101112101000, //n43
111200100200111200100000,
100000200200100000200000101010100000200000000000,
100100200200100000100000101010100000200000000000,
1122111212112000,
111200200000111200200000,
100100200200100000100000101010100000400000000000,
1122101110404000,
#BPMCHANGE 105.06
600000000000000000000008000000000000300000000000, //n51
#BPMCHANGE 135
#GOGOSTART
1021102011201020,
1021102011211020,
1021102011201020,
1222122112111211,
1021102011201020,
1021102011211020,
1021102011201020,
1122100030004000, //n59
#GOGOEND
#E
#BPMCHANGE 135
#GOGOSTART
1101102011112000,
1122221120021040,
1101102011112000,
2111211121112040,
1101102011112000,
1122221120021040,
100010001000100000200000100010001000100000200000,
1101100030003000, //e10
#GOGOEND
1102102011201120,
1102102011201120,
1101112011011120,
1101112111212220,
1102102011201120,
1102102011201120,
1102110211021120,
500000000000000008000000300000000000300000000000, //e18
1102102011211020,
1102102011211020,
1101122011011220,
1101112111212210,
1102102011211020,
1102102011211020,
100010001000100000200200100010001000100000200200,
111111300300, //e26
1101101120203000,
1101101120204011,
1011101110103020,
1121112111211120,
1101101122103000,
1101101122204011,
1021102110203000,
#BPMCHANGE 133.79
1101102030003000,
#MEASURE 1/16
#BPMCHANGE 138.68
#BARLINEOFF
0, //e35
#MEASURE 4/4
#BPMCHANGE 106
#BARLINEON
100001100200000100100000,
100001100200000100100200,
100001100200000100100000,
100102100102100102100100,
102201100202102100300000,
102201100202102200400000,
202201100202102201100000,
102201102101102200300000, //e43
002102102102100000300000,
100112200112100111200000,
002102102102100000300000,
102202102202101101200000,
102102100000102102100000,
101202101202101100300000,
102102200000102102200000,
#BPMCHANGE 105.06
500000000000000008000000300000000000300000000000, //e51
#BPMCHANGE 135
#GOGOSTART
1101102011112000,
1122221120021040,
1101102011112000,
2111211121112040,
1101102011112000,
1122221120021040,
100010001000100000200200100010001000100000200000,
1111100030003000, //e59
#GOGOEND
#M
#BPMCHANGE 135
#GOGOSTART
3021101110112011,
1021101110122011,
1021101110112011,
1021102111201120,
1021101110112011,
1021101110122011,
1021101110112011,
1122100030003000, //m10
#GOGOEND
1001201010112011,
1001201010122011,
1011201110222011,
1021102111201120,
1001201010112011,
1001201010122011,
1011201110222011,
1021122022112211, //m18
1021101110112011,
1021101110122011,
1021102110222011,
1021102111201120,
1021101110112011,
1021101110122011,
1021012110210120,
1122200030003000, //m26
1120001120003000,
1120001120004000,
1120001120003000,
1122102011221020,
1120101120121120,
1120201120212210,
1120101120121120,
#BPMCHANGE 133.79
1122100010003000,
#MEASURE 1/16
#BPMCHANGE 138.68
#BARLINEOFF
0, //m35
#MEASURE 4/4
#BPMCHANGE 106
#BARLINEON
300002100100000200300000,
300002100100000200200200,
300002100100000200300000,
3333,
100201102201100200300202,
100201102201100200402202,
100201102201100202100202,
100201102201100100102202, //m43
03333040,
100201102201100202102202,
03333040,
100201102201100202102222,
03300330,
100201100201100202102222,
03300330,
#BPMCHANGE 105.06
600000000000000000000008000000000000300000000000, //m51
#BPMCHANGE 135
#GOGOSTART
1021101110112011,
1021101110122011,
1021101110112011,
1112111211121212,
1021101110112011,
1122112211221212,
101010200000400000101010200000400000101010200000,
1122100030003000, //m59
#GOGOEND
#BRANCHEND
0,
0, //61
#END

COURSE:Hard
LEVEL:6
BALLOON:
SCOREINIT:620,2650
SCOREDIFF:175
#START
11,
111400,
#BPMCHANGE 135
#GOGOSTART
1011102010102000,
1011101010202000,
1011102010102000,
1011101110111000,
1011102010102000,
1011101010202000,
1011102010102000,
1111100030004000,
#GOGOEND
1001101000101000,
1001101000102000,
1001101000202000,
1011101110111000,
1001101000101000,
1001101000102000,
12021202,
500000000000000008000000300000000000400000000000,
1001101000101000,
1001101000102000,
1001101000202000,
1011101110111000,
1001101000101000,
1001101000102000,
12021202,
500000000000000008000000300000000000400000000000,
1110001110004000,
2220002220003000,
1110001110004000,
500000000000000000000000000000000008000000000000,
1110101110102000,
1110101110102000,
1110101110004000,
#BPMCHANGE 133.79
1111100030003000,
#MEASURE 1/16
#BPMCHANGE 138.68
#BARLINEOFF
0, //35
#MEASURE 4/4
#BPMCHANGE 106
#BARLINEON
100001100100000200200000,
100001100100000200200200,
100001100100000200200000,
3333,
100001100100100200100000,
100001100100100100200000,
100001100100100200100000,
100001100100100100400000,
01111040,
100001100200100100200000,
03333040,
100002200100000100200000,
01100220,
100001100200100100200000,
03300440,
#BPMCHANGE 105.06
600000000000000000000008000000000000300000000000,
#BPMCHANGE 135
#GOGOSTART
1011102010102000,
1011101010202000,
1011102010102000,
1011101110111000,
1011102010102000,
1011101010202000,
1011102010102000,
1111100030004000,
#GOGOEND
0,
0,
#END

COURSE:Normal
LEVEL:5
BALLOON:
SCOREINIT:730,4400
SCOREDIFF:240
#START
11,
500000000000008000000000400000000000000000000000,
#BPMCHANGE 135
#GOGOSTART
10110000,
10110020,
10110000,
1111,
10110000,
10110020,
10110000,
1034,
#GOGOEND
11001010,
11002020,
11001100,
1111,
11001010,
11002020,
11001100,
500000000008000000000000300000000000400000000000,
11001010,
11002020,
11001100,
3333,
11001010,
11002020,
11001100,
500000000008000000000000300000000000400000000000,
11011000,
22022000,
11011000,
500000000000000000000000000000000008000000000000,
11011020,
22022010,
11011020,
#BPMCHANGE 133.79
1033,
#MEASURE 1/16
#BPMCHANGE 138.68
#BARLINEOFF
0, //35
#MEASURE 4/4
#BPMCHANGE 106
#BARLINEON
10110220,
10110220,
10110220,
3333,
10101110,
10101120,
10101220,
10102220,
11102220,
10101120,
03333040,
10101220,
01100220,
10101120,
03300440,
#BPMCHANGE 105.06
600000000000000000000008000000000000300000000000,
#BPMCHANGE 135
#GOGOSTART
10110020,
10110220,
10110020,
3333,
10110020,
10110220,
10110020,
1034,
#GOGOEND
0,
0,
#END

COURSE:Easy
LEVEL:4
BALLOON:
SCOREINIT:580,5910
SCOREDIFF:218
#START
11,
500000000000008000000000400000000000000000000000,
#BPMCHANGE 135
#GOGOSTART
10110000,
12,
10110000,
33,
10110000,
12,
10110000,
13,
#GOGOEND
10001100,
10002200,
11001100,
1111,
10001100,
10002200,
11001100,
500000000008000000000000300000000000000000000000,
10001100,
10002200,
11001100,
3333,
10001100,
10002200,
11001100,
500000000008000000000000300000000000000000000000,
11,
22,
33,
500000000000000000000000000000000008000000000000,
11003000,
22004000,
11003000,
#BPMCHANGE 133.79
1033,
#MEASURE 1/16
#BPMCHANGE 138.68
#BARLINEOFF
0, //35
#MEASURE 4/4
#BPMCHANGE 106
#BARLINEON
1102,
10100220,
1102,
3333,
10110010,
10110020,
10110010,
10110020,
12,
1212,
01111000,
1112,
01100220,
1112,
0304,
#BPMCHANGE 105.06
600000000000000000000008000000000000300000000000,
#BPMCHANGE 135
#GOGOSTART
10110000,
12,
10110000,
3333,
10110000,
12,
10110000,
1034,
#GOGOEND
0,
0,
#END
