//TJADB Project
TITLE:Sora no Michishirube
TITLEJA:ソラのミチシルベ
SUBTITLE:--picnic feat. Madoka Yonezawa/Granblue Fantasy
SUBTITLEJA:「グランブルーファンタジー」より
BPM:158.1
WAVE:Sora no Michishirube.ogg
OFFSET:-1.793
DEMOSTART:43.193 //shinuchi:
6800/4610/3530/2680

COURSE:Oni
LEVEL:7
BALLOON:20
SCOREINIT:850,2900
SCOREDIFF:223
#START
#SCROLL 1.01
11211121,
#BPMCHANGE 160.97
#SCROLL 0.99
100000100000200000500000000008000000400000000000,
#BPMCHANGE 159.23
#SCROLL 1
0,
#BPMCHANGE 160.48
#SCROLL 0.99
0,
#BPMCHANGE 160
#SCROLL 1
10102011,
10102011,
10102011,
10102011,
10112011,
10112011,
2011102011102011,
1020111011111011, //12
10201122,
10201121,
10201122,
10201121,
10201122,
10201121,
2011101020111010,
0020002011101111, //20
10201122,
01201020,
10220222,
0010200011102000,
10201122,
01201020,
33330333,
0000400000112010, //28
#GOGOSTART
0010200000112010,
0010200000112010,
01201120,
1110201000102050,
000000000000000000000008000000000000200000000000,
1110201000200000,
7,
0000800000112010, //36
0010200000112010,
0022201000112010,
01201020,
1110201000102050,
000000000000000000000008000000000000200000000000,
1110201000112010,
0011100022200020,
000000500000000000000000000008000000000000500000,
000000000000000008000000200000200000000000100000,
0011200020200011,
2210112211221050,
000000000008000000200000100100200200100100200000, //48
#GOGOEND
11000000,
0,
22000000,
0,
4,
4,
4,
3,
6,
000000000000000000000008000000000000000000000000,
33030303,
33300002, //60
#BPMCHANGE 157.16
#SCROLL 1.01
0,
#BPMCHANGE 161.34
#SCROLL 0.99
2,
#BPMCHANGE 160.09
2022,
#BPMCHANGE 159.01
#SCROLL 1
2,
#BPMCHANGE 162.13
#SCROLL 0.98
2,
#BPMCHANGE 156.46
#SCROLL 1.02
2,
#BPMCHANGE 164.08
#SCROLL 0.97
20000004,
#BPMCHANGE 160
#SCROLL 1
0000000000112010, //68
#GOGOSTART
0010200000112010,
0022201000112010,
01201020,
1110201000102050,
000000000000000000000008000000000000200000000000,
1110201000102050,
000000000000000000000000000000000008000000300000,
03030000,
#GOGOEND
0,
0, //78
#END

COURSE:Hard
LEVEL:5
BALLOON:16,40,15
SCOREINIT:860,3980
SCOREDIFF:243
#START
#SCROLL 1.01
11201020,
#BPMCHANGE 160.97
#SCROLL 0.99
10020140,
#BPMCHANGE 159.23
#SCROLL 1
0,
#BPMCHANGE 160.48
#SCROLL 0.99
0,
#BPMCHANGE 160
#SCROLL 1
10101011,
10101011,
10101011,
10101011,
10102011,
10102011,
21021021,
0020100020111010, //12
10201120,
10201120,
10201120,
10201120,
1000200011102000,
1000200011102000,
22112112,
0020002000111010, //20
10102011,
0120,
10220222,
0120,
10102011,
0120,
33330333,
0000400000111010, //28
#GOGOSTART
0010200000111010,
0010200000111010,
01201020,
10220225,
000000000000000000000008000000000000100000000000,
10220200,
7,
0000800000111010, //36
0010200000111010,
0022202000111010,
01201020,
10220225,
000000000000000000000008000000000000100000000000,
10220209,
0,
0,
090000000000000000800000,
00000007,
000000000000000000000000000000000000000000000008,
0, //48
#GOGOEND
11000000,
0,
22000000,
0,
4,
4,
4,
3,
6,
000000000000000000000008000000000000000000000000,
33030303,
33300002, //60
#BPMCHANGE 157.16
#SCROLL 1.01
0,
#BPMCHANGE 161.34
#SCROLL 0.99
2,
#BPMCHANGE 160.09
2022,
#BPMCHANGE 159.01
#SCROLL 1
2,
#BPMCHANGE 162.13
#SCROLL 0.98
2,
#BPMCHANGE 156.46
#SCROLL 1.02
2,
#BPMCHANGE 164.08
#SCROLL 0.97
20000004,
#BPMCHANGE 160
#SCROLL 1
0000000000111010, //68
#GOGOSTART
0010200000111010,
0022202000111010,
01201020,
10220225,
000000000000000000000008000000000000100000000000,
10220205,
0,
000000000000000008000000000000000000000000000000,
#GOGOEND
0,
0, //78
#END

COURSE:Normal
LEVEL:4
BALLOON:12,27,10
SCOREINIT:830,5340
SCOREDIFF:255
#START
#SCROLL 1.01
11102020,
#BPMCHANGE 160.97
#SCROLL 0.99
10020130,
#BPMCHANGE 159.23
#SCROLL 1
0,
#BPMCHANGE 160.48
#SCROLL 0.99
0,
#BPMCHANGE 160
#SCROLL 1
1110,
1110,
1110,
1110,
1120,
1120,
5,
000000000008000000000000000000000000000000000000, //12
10101120,
10101120,
10101120,
10101120,
10101120,
10101120,
500000000000000000000000000000000000000000000008,
0, //20
10002011,
0120,
10220222,
0120,
10002011,
0120,
33330333,
00400111, //28
#GOGOSTART
00200111,
00200111,
0212,
10220225,
000000000000000000000008000000000000100000000000,
10220100,
7,
00800111, //36
00200111,
02220111,
0212,
10220225,
000000000000000000000008000000000000100000000000,
10220209,
0,
0,
090000000000000000800000,
00000007,
000000000000000000000000000000000000000000000008,
0, //48
#GOGOEND
1,
0,
2,
0,
4,
4,
4,
3,
6,
000000000000000000000008000000000000000000000000,
33030303,
33300002, //60
#BPMCHANGE 157.16
#SCROLL 1.01
0,
#BPMCHANGE 161.34
#SCROLL 0.99
2,
#BPMCHANGE 160.09
2022,
#BPMCHANGE 159.01
#SCROLL 1
2,
#BPMCHANGE 162.13
#SCROLL 0.98
2,
#BPMCHANGE 156.46
#SCROLL 1.02
2,
#BPMCHANGE 164.08
#SCROLL 0.97
20000004,
#BPMCHANGE 160
#SCROLL 1
00000111, //68
#GOGOSTART
00200111,
02220111,
0212,
10220225,
000000000000000000000008000000000000100000000000,
10220205,
0,
000000000000000008000000000000000000000000000000,
#GOGOEND
0,
0, //78
#END

COURSE:Easy
LEVEL:4
BALLOON:9,20,7
SCOREINIT:790,8050
SCOREDIFF:318
#START
#SCROLL 1.01
0202,
#BPMCHANGE 160.97
#SCROLL 0.99
0203,
#BPMCHANGE 159.23
#SCROLL 1
0,
#BPMCHANGE 160.48
#SCROLL 0.99
0,
#BPMCHANGE 160
#SCROLL 1
1,
1,
1,
1,
1,
1,
5,
000000000008000000000000000000000000000000000000, //12
12,
12,
1011,
1011,
1011,
1011,
500000000000000000000000000000000000000000000008,
0, //20
12,
0120,
12,
0120,
12,
0120,
30300303,
00400101, //28
#GOGOSTART
00000101,
00000101,
0011,
10020205,
000000000000000008000000000000000000100000000000,
10020200,
7,
00800101, //36
00200111,
01110111,
0011,
10020205,
000000000000000008000000000000000000100000000000,
10020209,
0,
0,
090000000000000000800000,
00000007,
000000000000000000000000000000000000000000000008,
0, //48
#GOGOEND
1,
0,
2,
0,
4,
4,
4,
3,
6,
000000000000000000000008000000000000000000000000,
33030303,
30300002, //60
#BPMCHANGE 157.16
#SCROLL 1.01
0,
#BPMCHANGE 161.34
#SCROLL 0.99
2,
#BPMCHANGE 160.09
2022,
#BPMCHANGE 159.01
#SCROLL 1
2,
#BPMCHANGE 162.13
#SCROLL 0.98
2,
#BPMCHANGE 156.46
#SCROLL 1.02
2,
#BPMCHANGE 164.08
#SCROLL 0.97
20000004,
#BPMCHANGE 160
#SCROLL 1
00000101, //68
#GOGOSTART
00200111,
01110111,
0022,
10020205,
000000000000000008000000000000000000100000000000,
10020205,
0,
000000000000000008000000000000000000000000000000,
#GOGOEND
0,
0, //78
#END
