//TJADB Project
TITLE:Holding Hands
TITLEJA:Holding Hands
SUBTITLE:--Kenji Itoh/Puzzle & Dragons
SUBTITLEJA:「パズル&ドラゴンズ」より
BPM:146
WAVE:Holding Hands.ogg
OFFSET:-1.805
DEMOSTART:60.988 //Ignored
3 hidden barlines at the end. //Shinuchi:
8280/4510/2940/2400

COURSE:Oni
LEVEL:7
BALLOON:20,8,12
SCOREINIT:750,2500
SCOREDIFF:208
#START
1012,
1012,
1012,
1012,
1110101000102000,
1110101000102000,
1110101000102000,
1110100022102000, //8
1011201011201020,
1011201011201010,
1011201011201020,
1011202022102210,
1000201000112010,
100100100000000000200000500000000000000008000000,
1000201000112010,
1110222010201000, //16
1000102000221020,
1110222011102220,
1001007000000000,
0008,
1000201000112010,
100100100000000000200000500000000000000008000000,
1000201000112010,
1110222011102000, //24
2220201000102020,
1002001011102220,
1000202210020020,
7000000080001122,
1002002011102220,
1110001022201000,
1110222022201000,
100100100000000000200200500000000000000008000000,
1002002022201000,
1110222022201110,
1000202220020010,
7008, //36
#GOGOSTART
1010201110102010,
1110201120102010,
1010201120120120,
1110202220102000,
1010201110102011,
1010202220102000,
3021021040120120,
1010201122112210, //44
1010201110112010,
1110201120112010,
1010201120120120,
1110202220112000,
3021021030003000,
1110202220112000,
500000000000000000000000000000000000000008000000,
2211221122112210,
4,
#GOGOEND
3, //54
#END

COURSE:Hard
LEVEL:6
BALLOON:16,10,10,4
SCOREINIT:760,3150
SCOREDIFF:203
#START
1012,
1012,
1012,
1012,
10110120,
10110120,
10110120,
1110100022202000, //8
1010201011101000,
1010201011101000,
1010201011101000,
1010202022202220,
10210121,
100100100000000000200000500000000000000008000000,
10210121,
1110200010201000, //16
10120222,
1110200011102000,
1001007000000000,
0008,
10210121,
100100100000000000200000500000000000000008000000,
10210121,
1110200011102000, //24
10210122,
1002001011102000,
1000202220020020,
7008,
1002002011102000,
1000102011101000,
1110200022201000,
100000000000200000100100500000000000000008000000,
1002002010001000,
1110200022201000,
1000202220020020,
7008, //36
#GOGOSTART
11211121,
1110201020102000,
1010201110020020,
1110201020102000,
1010201110102010,
1110202000101000,
3003003040040040,
1010201070000800, //44
11211121,
1110201020102000,
1010201110020020,
1110201020102000,
3004004030003000,
1010201110102000,
500000000000000000000000000000000000000008000000,
2220222022222220,
4,
#GOGOEND
3, //54
#END

COURSE:Normal
LEVEL:5
BALLOON:5,5,10,6,6,10
SCOREINIT:880,5100
SCOREDIFF:273
#START
500000000000000000000000000000000008000000000000,
7008,
500000000000000000000000000000000008000000000000,
7008,
1102,
1102,
1102,
10102220, //8
10110110,
10110110,
10110110,
10104440,
10110220,
10011000,
10110220,
10102220, //16
10010220,
1212,
1001007000000000,
0008,
10110222,
10011000,
10110222,
1212, //24
10010222,
1001001010002000,
1000001010020020,
7008,
1001001010002000,
10011020,
1122,
10011000,
1001001010002000,
3443,
1000001010010010,
7008, //36
#GOGOSTART
10211021,
1222,
1000201010020020,
1221,
10211020,
10220110,
3003000040040000,
10221000, //44
10211021,
1222,
1000201010020020,
1221,
3003000040004000,
10220120,
9009,
8,
4,
#GOGOEND
3, //54
#END

COURSE:Easy
LEVEL:3
BALLOON:4,4,4,4,7,5,5,7
SCOREINIT:920,9460
SCOREDIFF:410
#START
500000000000000000000000000000000008000000000000,
7008,
500000000000000000000000000000000008000000000000,
7008,
500000000000000000000000000000000008000000000000,
7008,
500000000000000000000000000000000008000000000000,
7008, //8
1001,
1001,
1001,
14,
11,
1110,
11,
2220, //16
11,
1122,
10070000,
0008,
11,
1110,
11,
2222, //24
11,
1122,
1022,
7008,
11,
1110,
1122,
11,
1122,
33,
11,
7008, //36
#GOGOSTART
11,
1110,
11,
1122,
11,
1122,
34,
1110, //44
11,
1110,
11,
1122,
34,
1122,
9009,
8,
4,
#GOGOEND
3, //54
#END
