//TJADB Project
TITLE:Gloria
TITLEJA:Gloria
SUBTITLE:--K.key
SUBTITLEJA:K.key
BPM:222
WAVE:Gloria.ogg
OFFSET:-1.672
DEMOSTART:54.634

COURSE:Oni
LEVEL:10
BALLOON:18
SCOREINIT:310
SCOREDIFF:90
#START
2,
2,
2,
02002002,
,
2,
1020101112111211,
2224,//8
#GOGOSTART
1110202011102020,
1000200000112020,
1000200011202010,
0020002210102010,
0000221020100010,
0012101022102010,
1210201000111020,
1120201012202010,//16
#GOGOEND
,
1000200000112020,
1010202000222010,
500000000000000008000000200000000000200000000000,
2000000000112020,
10201022,
1010202000222020,
100000000000000000500000000000000000000008000000,
1000202011102020,
10020022,
1000001220102020,
1000222010002000,
1221221022102020,
10210202,
10020210,
111222,
3000000000101120,
1012101000101121,
1011102000101120,
1012101000101121,
1010111120201121,
1012101000111020,
1222102000101120,
10201122,
1011201011201020,
1022101000221010,
2010201000221010,
2011201120112020,
10210220,
500000000000000000000000000000000000000008000000,
1010101210101010,
101010202020121010202020,
10440000,//49
#GOGOSTART
1110202011102020,
1000200000112020,
1000200011202010,
0020002210102050,
000008000000200200100000200000100000000000100000,
0012101022102010,
1210201000111020,
1120201012202010,
1110202011102020,
1000201000112020,
1000200011202010,
0020001210102050,
000008000000200200100000200000100100200000100000,
2012101022102010,
1112102012111040,
04040430,
1011202010122020,
1022102010112021,
1011201010122010,
1022102010112012,
1011202010122020,
1022102010112021,
1011211010112210,
1212101222102010,
1210202012221020,
1210202022122010,
1210202012221020,
1110221000221010,
2011201120112011,
2012201220102020,
500000000000000000000000000000000008000000200000,
500000000000000008000000400000000000000000000000,//81
#GOGOEND
32,
200200002202,
20202002,
000200000000200020200200,
000000200020200020000200,
000202202202,
200202002200,
1000100011111000,//89
#GOGOSTART
70000008,//90
#GOGOEND
30114400,
3000201210300040,
0040001122200030,//93
#GOGOSTART
0010200011102010,
1111201000221010,
2011222020112220,
1022101000122010,
2011102010112221,
2011102011222221,
2011102012102010,
1020102012121212,
1222102010112010,
1110201011211020,
1122102010112020,
1110201011221020,
1121102010112010,
1110201012221020,
1210101020121010,
1210101020121010,
1221221221221221,
2212212212212212,
1221221221221221,
2212212212212210,//113
#GOGOEND
3,
#END

COURSE:Hard
LEVEL:7
BALLOON:18,11,11,40
SCOREINIT:430
SCOREDIFF:100
#START
2,
,
2,
00000002,
,
2,
7,
0008,//8
#GOGOSTART
10112211,
10100111,
20101122,
01002211,
00211101,
00112211,
10110111,
22112211,//16
#GOGOEND
,
10200122,
11220122,
5,
000000000008000000000000000000200000200000200000,
10201022,
11220122,
10050000,
000000000008000000000000100000000000200000200000,
10010022,
10012122,
10221020,
10001122,
10110202,
10010220,
111111,
10000112,
10210112,
10020112,
10210112,
10020112,
10210112,
10020112,
10201022,
11221122,
10110101,
10210210,
20210202,
10210220,
500000000000000000000000000000000000000000000008,
,
7,
8,//49
#GOGOSTART
10112211,
10100111,
20101122,
01002211,
00211101,
00112211,
10110111,
22112211,
10112212,
10210122,
10201221,
02002221,
00021122,
11221121,
02112114,
04040430,
10201120,
10221121,
10201120,
10221121,
10201022,
11221121,
10221121,
21010211,
11120220,
11220120,
12220120,
20210222,
11221122,
33443344,
6,
000000000000000000000008000000000000000000000000,//81
#GOGOEND
3,
,
2,
00000002,
00000002,
,
22,
1111,//89
#GOGOSTART
7,//90
#GOGOEND
80002200,
30203023,
03002221,//93
#GOGOSTART
00101011,
22110222,
10221022,
10110222,
11121022,
12121022,
11121022,
12121022,
10201122,
10201121,
10201122,
10201121,
10111122,
10111121,
11111111,
11111111,
7,
,
,
8,//113
#GOGOEND
3,
,
,
,
#END

COURSE:Normal
LEVEL:7
BALLOON:7,7,7,7,30
#START
2,
,
2,
00000002,
,
2,
7,
8,//8
#GOGOSTART
10101011,
1101,
10101011,
02001001,
00101011,
1110,
10101011,
1111,//16
#GOGOEND
,
1210,
1212,
5,
000000000008000000000000000000000000000000000000,
1210,
1212,
10050000,
000000000008000000000000000000000000000000000000,
10010020,
10010020,
1111,
1,
10010020,
10010020,
7,
8,
10020010,
12,
10020010,
12,
10020010,
12,
12,
1122,
1100,
10010010,
2200,
20020020,
500000000000000000000000000000000000000000000008,
,
7,
8,//49
#GOGOSTART
10101011,
1101,
10101011,
02001001,
00101011,
1110,
10101011,
1110,
10101011,
1101,
10101011,
02001001,
00101011,
1110,
10101003,
03040400,
12,
1122,
12,
1120,
12,
1122,
12,
1120,
10010020,
10010020,
10010020,
10010020,
1111,
3333,
6,
000000000000000000000008000000000000000000000000,//81
#GOGOEND
3,
,
2,
00000002,
00000002,
,
22,
1111,//89
#GOGOSTART
7,//90
#GOGOEND
8,
30003003,
03004001,//93
#GOGOSTART
00101011,
1110,
10101011,
1110,
1122,
1120,
1122,
1120,
1212,
10201011,
1212,
10201011,
10101011,
10101011,
10111011,
10111111,
7,
,
,
8,//113
#GOGOEND
3,
,
,
,
#END

COURSE:Easy
LEVEL:5
BALLOON:5,5,5,5,20
#START
2,
,
2,
00000002,
,
,
7,
8,//8
#GOGOSTART
1110,
1100,
10100001,
00001001,
00101001,
0110,
1110,
1111,//16
#GOGOEND
,
11,
1110,
5,
000000000008000000000000000000000000000000000000,
11,
1110,
10050000,
000000000008000000000000000000000000000000000000,
10010000,
10010000,
11,
1,
10010000,
10010000,
7,
8,
10020000,
02,
10020000,
02,
10020000,
02,
10020000,
12,
1100,
10010000,
2200,
20020000,
500000000000000000000000000000000000000000000008,
,
7,
8,//49
#GOGOSTART
1110,
1100,
10100001,
00001001,
0110,
1110,
1111,
1,
1110,
1100,
10100001,
00001001,
0110,
1110,
10101003,
03030300,
12,
1110,
12,
1110,
12,
1120,
12,
1120,
10010000,
10010000,
20020000,
20020000,
1110,
3333,
6,
000000000000000000000008000000000000000000000000,//81
#GOGOEND
3,
,
2,
00000002,
00000002,
,
22,
1110,//89
#GOGOSTART
7,//90
#GOGOEND
8,
30003003,
03004001,//93
#GOGOSTART
0110,
1110,
1111,
1,
12,
1110,
12,
1110,
1110,
1110,
2220,
2220,
1111,
1110,
3333,
3330,
7,
,
,
8,//113
#GOGOEND
3,
,
,
,
#END
