//TJADB Project
TITLE:PERFECT HUMAN
TITLEJA:PERFECT HUMAN
SUBTITLE:--RADIO FISH
SUBTITLEJA:
BPM:128
WAVE:PERFECT HUMAN.ogg
OFFSET:-2.105
DEMOSTART:49.448 //Shinuchi:
9890/4920/3360/2310

COURSE:Oni
LEVEL:8
BALLOON:40
SCOREINIT:780,2710
SCOREDIFF:213
#START
2000020202021000,
2000020202021000,
2000020202021000,
22,
1012020202021010,
1012020202021000,
1012020202021010,
100000100010200000100000100200000100200000000000, //8
1012020202021020,
1012020202021000,
1012020202021020,
100000100010200000100000100200000100200000000100,
100000100000200000000200100000100010200000100000,
100000100000200000000200100000100010200000100000,
100000100000200000000200100000100010200000100000,
1110112000000000, //16
20202021,
20202021,
2000203000211020,
1000203000211020,
3000200020102110,
3000200020102110,
30214026,
000000000000000000000000000000000000000000000008,
0,
0, //26
#GOGOSTART
3003003000211020,
3003003000211020,
3003003000211020,
0,
500000000000000000000000000000000000000000000008,
0001201010002000,
3003003000211020,
0000000000000001, //34
#GOGOEND
1020200110202011,
0121012102102020,
100000100100200000100100200000100010200100000000,
100200100200100000100200100000100010200100000100,
100100100100200000100200100000100010200000000000,
20202021,
1144,
1012011120000000, //42
20202021,
20202021,
2000203000211020,
1000203000211020,
3000200020102110,
3000200020102110,
30214027,
0,
0,
8, //52
#GOGOSTART
3003003000211020,
3003003000211020,
3003003000211020,
0,
500000000000000000000000000000000000000000000008,
0001201010002000,
3003003000211020,
0, //60
3003003000404040,
3003003000404040,
3003003000404040,
#GOGOEND
0,
0, //65
#END

COURSE:Hard
LEVEL:4
BALLOON:30
SCOREINIT:730,4220
SCOREDIFF:220
#START
2,
2,
2,
22,
10200120,
10200120,
10200120,
11, //8
10201120,
10201120,
10201120,
11,
1010200110102000,
1010200110102000,
1010200110102000,
10120000, //16
20202021,
20202021,
20030222,
10030222,
3222,
3222,
30203026,
000000000000000000000000000000000000000000000008,
0,
0, //26
#GOGOSTART
3003003000202020,
3003003000202020,
3003003000202020,
0,
500000000000000000000000000000000000000000000008,
00211020,
3003003000202020,
0, //34
#GOGOEND
12201220,
10201022,
10201120,
1000200010102001,
1010200110102000,
2222,
1144,
0, //42
20202021,
20202021,
20030222,
10030222,
3222,
3222,
30203029,
0,
000000000009000000000000,
8, //52
#GOGOSTART
3003003000202020,
3003003000202020,
3003003000202020,
0,
500000000000000000000000000000000000000000000008,
00211020,
3003003000202020,
0, //60
3003003000404040,
3003003000404040,
3003003000404040,
#GOGOEND
0,
0, //65
#END

COURSE:Normal
LEVEL:3
BALLOON:22
SCOREINIT:750,6450
SCOREDIFF:273
#START
2,
2,
2,
22,
11,
1120,
11,
1120, //8
11,
1120,
11,
1,
1102,
1102,
1102,
1100, //16
22,
22,
20030000,
20030000,
4,
4,
40004006,
000000000000000000000000000000000000000000000008,
0,
0, //26
#GOGOSTART
3003003000101010,
3003003000101010,
3003003000101010,
0,
500000000000000000000000000000000000000000000008,
00111020,
3003003000101010,
0, //34
#GOGOEND
1212,
1102,
1212,
1102,
11,
2222,
0022,
0, //42
22,
22,
20030000,
20030000,
4,
4,
40004009,
0,
000000000009000000000000,
8, //52
#GOGOSTART
3003003000101010,
3003003000101010,
3003003000101010,
0,
500000000000000000000000000000000000000000000008,
00111020,
3003003000101010,
0,
3003003000202020,
3003003000202020,
3003003000202020,
#GOGOEND
0,
0, //65
#END

COURSE:Easy
LEVEL:2
BALLOON:17
SCOREINIT:1030,12750
SCOREDIFF:740
#START
2,
2,
2,
2,
11,
1110,
11,
1110, //8
11,
1110,
11,
1,
1100,
1100,
1100,
1100, //16
2,
2,
00030000,
00030000,
4,
4,
40004006,
000000000000000000000000000000000000000000000008,
0,
0, //26
#GOGOSTART
3,
3,
3,
0,
500000000000000000000000000000000000000000000008,
0111,
0,
0, //34
#GOGOEND
11,
1110,
11,
1110,
2,
2222,
0022,
0, //42
2,
2,
00030000,
00030000,
4,
4,
40004009,
0,
000000000009000000000000,
8, //52
#GOGOSTART
3,
3,
3,
0,
500000000000000000000000000000000000000000000008,
0111,
0,
0, //60
3,
3,
3,
#GOGOEND
0,
0, //65
#END
