//TJADB Project
TITLE:Kirby’s Dream Land Medley
TITLEJA:星のカービィメドレー
SUBTITLE:--Hirokazu Ando/Kirby’s Return to Dream Land
SUBTITLEJA:「星のカービィ Wii」より
BPM:181
WAVE:Kirbys Dream Land Medley.ogg
OFFSET:-1.571
DEMOSTART:34.121 //Shinuchi:
9250/5110/2750/2030

COURSE:Oni
LEVEL:8
BALLOON:5,5,5,6,6
SCOREINIT:670,2170
SCOREDIFF:173
#START
#BARLINEOFF
#MEASURE 2/4
00222011,
#BARLINEON
#MEASURE 4/4
12222222,
1120202020202020,
1120202020202020,
0010102020001001,
1020202010201002,
2010202010201002,
2010200220102001,
500000000000000000000000000008000000100000000100, //9
1020202010201002,
2010202010201002,
1010200210102001,
500000000000000000000000000000000000800000000000,
1001202011201020,
1120202020202020,
1120202020201001, //16
#GOGOSTART
1010200210102002,
1010200210001001,
1010200210102002,
500000000000000008000000400000000000100000000100,
1010200120102002,
1010200210001001,
1010200210102002,
#MEASURE 3/4
500000000000000008000000400000000000, //24
#GOGOEND
#MEASURE 4/4
#BPMCHANGE 139
#SCROLL 1.29
600000000000000000000000000000000000000008000000,
#BPMCHANGE 172
#SCROLL 1.04
43043043,
#BPMCHANGE 180
#SCROLL 1
1110200011112000,
1110200011112000,
1110200000102010,
0010200010222000,
1110200000102010,
01201202, //32
1110200000102020,
1120002010102020,
1120000000001120,
0000000011202222,
1110200010102022,
1010202210122000,
1110200010102022,
1010202210201020,
1110200010221020,
1120002011221120,
1110200010201120,
#BPMCHANGE 177
0020002011202220, //44
#GOGOSTART
1011202010221020,
1122107000008000,
2022102010112020,
1122207000008022,
1011202010221020,
1121207000008000,
2022102010112210,
100100200100100000500000000000000008000000000000, //52
#BPMCHANGE 176
1001201110221120,
1001700000008022,
1001201110020020,
7000000080200200,
1000202210020020,
1000202210020020,
100000600000000000000000000000000000000008000000,
#BPMCHANGE 178
43043043,
#GOGOEND
0, //61
#BPMCHANGE 170
#GOGOSTART
122122102100,
122122101100,
122122102102,
201202100400,
#GOGOEND
0, //66
#END

COURSE:Hard
LEVEL:5
BALLOON:4,4,4
SCOREINIT:650,2940
SCOREDIFF:173
#START
#BARLINEOFF
#MEASURE 2/4
00222000,
#BARLINEON
#MEASURE 4/4
12222220,
12222220,
12222222,
01122000,
1000200010002002,
2010202010001002,
2000100220001002,
500000000000000000000000000000000008000000000000, //9
1000200010002002,
2010202010002002,
2000100220001002,
500000000000000000000000000000000008000000000000,
1001102000102020,
12222220,
1020202020201001, //16
#GOGOSTART
1000200220001001,
1000200220001001,
1000200220001001,
1000000040001001,
1000200220001001,
1000200220001001,
1000200220001002,
#MEASURE 3/4
104, //24
#GOGOEND
#MEASURE 4/4
#BPMCHANGE 139
#SCROLL 1.29
600000000000000000000000000000000000000008000000,
#BPMCHANGE 172
#SCROLL 1.04
43043043,
#BPMCHANGE 180
#SCROLL 1
0,
0,
1110000000102010,
01201220,
1110000000102010,
01201220,
1110000000102000,
12021122,
1110000000001110,
0000000011100000, //36
1110200010102010,
0010200010222000,
1110200010102010,
0010200010222020,
1110200010201000,
12021122,
1110200010001110,
#BPMCHANGE 177
0000200011100000, //44
#GOGOSTART
1011100010111000,
12070080,
2022200020222000,
12070080,
1011100010111000,
12070080,
1022200010222000,
100000100000200000500000000000000008000000000000, //52
#BPMCHANGE 176
1000200010020020,
500000000000000000000000000000000008000000000000,
1000200010010020,
500000000000000000000008000000100000000200000000,
1000202220010020,
1000202220010020,
100000600000000000000000000000000000000008000000,
#BPMCHANGE 178
43043043,
#GOGOEND
0, //61
#BPMCHANGE 170
#GOGOSTART
111101102200,
111101102100,
111101102201,
102201100400,
#GOGOEND
0, //66
#END

COURSE:Normal
LEVEL:4
BALLOON:7,7,10
SCOREINIT:870,5700
SCOREDIFF:313
#START
#BARLINEOFF
#MEASURE 2/4
0,
#BARLINEON
#MEASURE 4/4
1,
1,
1,
01111000,
1202,
1202,
1212,
500000000000000000000000000000000008000000000000, //9
1202,
1202,
1212,
500000000000000000000000000000000008000000000000,
3,
1202,
1202, //16
#GOGOSTART
1212,
1120,
1212,
34,
1212,
1120,
1212,
#MEASURE 3/4
304, //24
#GOGOEND
#MEASURE 4/4
#BPMCHANGE 139
#SCROLL 1.29
0,
#BPMCHANGE 172
#SCROLL 1.04
30030030,
#BPMCHANGE 180
#SCROLL 1
0,
0, //28
10000110,
10200220,
10000110,
10200220,
10000110,
10200220,
3003,
03, //36
10200110,
10200220,
10200110,
10202220,
10200110,
10202220,
3003,
#BPMCHANGE 177
03, //44
#GOGOSTART
11101010,
22020000,
20202220,
11010000,
11101010,
22020000,
20202220,
11110000, //52
#BPMCHANGE 176
12,
7008,
12,
7008,
1022,
1022,
900000000000000000000000000000000000090000000000,
#BPMCHANGE 178
080000000000000000000000000000000000000000000000,
#GOGOEND
0, //61
#BPMCHANGE 170
#GOGOSTART
1122,
1122,
1121,
2134,
#GOGOEND
0, //66
#END

COURSE:Easy
LEVEL:2
BALLOON:4,4,4,7
SCOREINIT:930,11860
SCOREDIFF:648
#START
#BARLINEOFF
#MEASURE 2/4
0,
#BARLINEON
#MEASURE 4/4
3,
3,
3,
000000600000000000000008000000000000000000000000,
1,
11,
11,
500000000000000000000000000008000000000000000000, //9
2,
22,
22,
500000000000000000000000000008000000000000000000,
3,
1,
1, //16
#GOGOSTART
11,
1110,
11,
12,
11,
1110,
11,
#MEASURE 3/4
102, //24
#GOGOEND
#MEASURE 4/4
#BPMCHANGE 139
#SCROLL 1.29
0,
#BPMCHANGE 172
#SCROLL 1.04
30030030,
#BPMCHANGE 180
#SCROLL 1
0,
0, //28
3,
0,
3,
0,
4,
0,
3003,
03, //36
3,
1100,
3,
1100,
4,
2200,
3003,
#BPMCHANGE 177
03, //44
#GOGOSTART
1011,
70000800,
2022,
70000800,
1011,
70000800,
2022,
500000000000000000000000000008000000000000000000, //52
#BPMCHANGE 176
#SCROLL 1
1,
2,
1,
2,
11,
22,
900000000000000000000000000000000000090000000000,
#BPMCHANGE 178
080000000000000000000000000000000000000000000000,
#GOGOEND
0, //61
#BPMCHANGE 170
#GOGOSTART
11,
22,
11,
2033,
#GOGOEND
0, //66
#END
