//TJADB Project
TITLE:Yume to Genjitsu no Kyoukaisen
TITLEJA:夢と現実の境界線
SUBTITLE:--OMOCHI feat. Yuzuri
SUBTITLEJA:
BPM:155
WAVE:Yume to Genjitsu no Kyoukaisen.ogg
OFFSET:-2.014
DEMOSTART:73.223 //Shinuchi:
5260/3320/2380/1540

COURSE:Oni
LEVEL:9
BALLOON:12,7,7,7,7,10
SCOREINIT:560,1650
SCOREDIFF:135
#START
2000000020020020,
2002002000102020,
1000102220010070,
0008,
3020102010211020,
1020102011021020,
1020102010211020,
1021102011021020, //8
3020102010211020,
1020102011021022,
1020102011021011,
1003003000000000,
1001002010010020,
1001002010002022,
1000101020002022,
27000080, //16
1001002010010020,
1001002010002022,
1000201020220020,
7008,
1011002010110020,
1011002010002220,
1000101120002022,
27000080, //24
1011002010110022,
1011002010002220,
1000101120221120,
78,
1001001011201022,
21012121,
1001001011201022,
2010001020112011, //32
1001001011201022,
2010001020112022,
1001001011201022,
2010001020102222,
1001001011201020,
0022102011201022,
1001001011201020,
0022102011202020, //40
1001001011202020,
1001001011202020,
1022102011221050,
000000000000000000000000000000000008000000000000,
4,
3003003000001111, //46
#GOGOSTART
1022002210210120,
1022002011011010,
1022002210210120,
1021002011011011,
1022002210210120,
1021002011011022,
1022002210211022,
1021021040222222,
1022002210210120,
1021002011211020,
1022002210210120,
1021002011211120,
1022002210210120,
1021002011211021,
1022002010211120,
1022112211222222, //62
#GOGOEND
1010202010210120,
3003003000102020,
500000000008000000200200100000000100000000700000,
0008,
3022102010211020,
1020102011021022,
1021102010211020,
1021012012021020, //70
3021012010211020,
1021112011021022,
1021112011021111,
1021003022022222,
1021003011221210,
3,
#BARLINEOFF
0,
0,
0, //79
#END

COURSE:Hard
LEVEL:7
BALLOON:8,5,7,5,5,5,5,3,3,7
SCOREINIT:690,2710
SCOREDIFF:173
#START
2000000020020000,
20020022,
1000001010010070,
0008,
3020102010111000,
1020102011101000,
1020102010111000,
1020102011101000, //8
1020102011102000,
1020102011102000,
1020102011101000,
3003003000000000,
1001001010010010,
1001001010002020,
10011022,
07000080, //16
1001001010010010,
1001001010002020,
1000001010110020,
7008,
1001001020020020,
1001002010002020,
10211022,
07000080, //24
1001001020020020,
1001002010002020,
1000201011102000,
7082,
500000000000000000000000000008000000000000100100,
500000000000000008000000100000000000100000000000,
500000000000000000000000000008000000000000100100,
7082, //32
500000000000000000000000000008000000000000100100,
500000000000000008000000100000000000200000000000,
500000000000000000000000000008000000000000100000,
7082,
1001001000200020,
0010007008001000,
1001001000200020,
01120222, //40
1001002000101020,
1001007008000010,
500000000000000008000000100000000000100000500000,
000000000000000000000000000000000008000000000000,
4,
3003003000000000, //46
#GOGOSTART
3000002220010020,
1001002000001020,
1000002220010020,
1001001000000000,
1000002220010020,
1001002000000020,
1000001110000040,
3003003040000000, //54
3000002220010020,
1001001000001020,
1000002220010020,
1002002000000000,
1000002220010020,
1002002000000020,
1000002220010010,
100000200000500000000000000000000008000000200000, //62
#GOGOEND
1010202010220020,
3003003000002020,
1000102220010070,
0008,
3020102010111000,
1020102011101000,
1020102010111000,
1020102011101000, //70
1020102011102020,
1020102022201110,
1020102011102220,
3003003000111010,
3003003022202220,
3,
#BARLINEOFF
0,
0,
0, //79
#END

COURSE:Normal
LEVEL:6
BALLOON:4,5,4,4,3,3,5
SCOREINIT:710,3740
SCOREDIFF:198
#START
0,
00000011,
1000001010010050,
000000000000000000000000000000000008000000000000,
10101110,
10101011,
10101110,
11101000, //8
10101110,
10102220,
10102220,
3003003000000000,
1001000010010000,
1001000010000000,
10011011,
07000080, //16
1001000010010000,
1001000010000000,
10011020,
7008,
1001000020020000,
1001000020000000,
10022022,
07000080, //24
1001000020020000,
1001000020000000,
10011020,
7081,
500000000000000000000000000008000000000000100000,
1011,
500000000000000000000000000008000000000000100000,
7082, //32
500000000000000000000000000008000000000000100000,
1022,
500000000000000000000000000008000000000000200000,
7081,
1001001000200020,
01010020,
1001001000200020,
01110220, //40
1001001000202000,
1001001000000020,
20001015,
000000000000000000000000000000000008000000000000,
4,
3003003000000000, //46
#GOGOSTART
1000002020020020,
1001001000001010,
1000002020020020,
1001001000000000,
1000002020020020,
1001001000000020,
20011001,
1001001030000000, //54
1000002020020020,
1001002000002020,
1000002020010010,
1001002000000000,
1000002020020020,
1001001000000010,
1000002020020020,
100000200000500000000000000000000008000000000000, //62
#GOGOEND
1010100020020020,
3003003000002020,
1000002020010070,
0008,
10101110,
10102011,
10102220,
3003003000000000, //70
10102220,
10102220,
10101120,
3003003000102000,
3003003000202020,
3,
#BARLINEOFF
0,
0,
0, //79
#END

COURSE:Easy
LEVEL:4
BALLOON:3,5
SCOREINIT:610,6050
SCOREDIFF:208
#START
0,
0,
10001005,
000000000000000000000000000008000000000000000000,
11,
1011,
11,
1100, //8
11,
1011,
500000000000000000000000000008000000000000000000,
30030000,
11,
1110,
11,
500000000000000000000000000008000000000000000000, //16
11,
1110,
1011,
500000000000000000000000000008000000000000000000,
1110,
1110,
1011,
500000000000000000000000000008000000000000000000, //24
1110,
2220,
1022,
78,
500000000000000000000000000008000000000000000000,
1011,
500000000000000000000000000008000000000000000000,
3, //32
500000000000000000000000000008000000000000000000,
1022,
500000000000000000000000000008000000000000000000,
3,
1110,
2220,
1110,
2220, //40
1120,
1110,
10102005,
000000000000000000000000000008000000000000000000,
4,
30030000, //46
#GOGOSTART
3022,
1110,
1022,
1120,
1022,
1110,
1212,
3330, //54
3022,
1210,
1022,
1220,
1012,
1210,
1021,
500000000000000000000000000008000000000000000000, //62
#GOGOEND
11,
30030000,
10102007,
0008,
11,
1011,
1022,
1110, //70
1122,
1022,
1022,
30030040,
30030040,
3,
#BARLINEOFF
0,
0,
0, //79
#END
