//TJADB Project
TITLE:Ego Ego Atakushi
TITLEJA:エゴエゴアタクシ
SUBTITLE:--Koji Nakagawa feat. Eriko Nakamura
BPM:170
WAVE:Ego Ego Atakushi.ogg
OFFSET:-1.602
DEMOSTART:66.553

COURSE:Oni
LEVEL:8
BALLOON:80
SCOREINIT:450
SCOREDIFF:110
#START
2022202220202022,
10101012,
10101012,
10121212,
1010202010101210,
,
2222,//7
1011101110111011,
1011101110202000,
1011101110111011,
1011101110002222,
1011101110111011,
2011201120202000,
1011101110111011,
1011101110202000,
1022102210221022,
1022102210101000,
1022102210221022,
1022101110101000,
1022102210221022,
1022102210101000,
1022102210221022,
1022101110101000,
1010112011112020,
1110112011112020,
1110112011112010,
2222200022222000,
1010112011112020,
1110112011111020,
1110112011112010,
2222200022222000,
1010112011112020,
1110112001012010,
1110112011112010,
2222200022222000,
1222200012222000,
1122200011222000,
1112200011122000,
1111200011111000,
1022201022201022,
2010222010222011,
1110111110111110,
1212000012120000,
1212121211111111,
,
2220222022202220,//46
#GOGOSTART
0011101011101011,
1010111010111010,
1110101110101110,
1011101011101011,
1100,
,
1111201120102000,
2222102210201000,
0011201011201011,
2010112010112010,
1120101120101120,
1011201011201011,
1200,
,
102102102102,
102102100100,
0011202011202011,
2020112020112020,
1120201120201120,
2011202011202011,
10220000,
,
1022101010221020,
1022101010000000,
0012202012202012,
2020122020122020,
1220201220201220,
2012202012202011,
#MEASURE 9/8
1000222000001111
#BPMCHANGE 5.31
#SCROLL 0.5
#GOGOEND
00,
#MEASURE 4/4
#BPMCHANGE 170
#SCROLL 0.7
#GOGOSTART
2222,
#SCROLL 0.85
2220222022202220,
#SCROLL 1
3370,
,
,
,
,
,
08,
#END

COURSE:Hard
LEVEL:7
BALLOON:60
#START
,
10000001,
10000001,
10011220,
11221212,
,
2222,//7
1011101010101000,
1011101010202000,
1011101010101000,
1011101010000000,
1011101010101000,
1011102020000000,
1011101010101000,
1011101010000000,
1111,
10111220,
1111,
10111220,
1111,
11111220,
1111,
10111000,
1010111010111011,
1010111010111011,
1011101011101110,
22202220,
1010111010111011,
1010111010111011,
1011101011101110,
22202220,
1010111011101110,
1010111000101110,
1010111011101110,
22202220,
22202220,
22202220,
2202200022022000,
2202200022220000,
11011011,
01101111,
11333333,
1111000011110000,
5,
8,
,//46
#GOGOSTART
01112221,
11222111,
22211122,
21112220,
10220000,
1,
1011101020202000,
2022202010101000,
01112221,
11222111,
22211122,
21112220,
10220000,
1,
202202202202,
202202200200,
01121121,
12112112,
11211211,
21121120,
10220000,
1,
11201120,
11201000,
01121121,
12112112,
11211211,
21121120,
#MEASURE 9/8
1010202000001110
#BPMCHANGE 5.31
#SCROLL 0.5
#GOGOEND
00,
#MEASURE 4/4
#BPMCHANGE 170
#SCROLL 0.7
#GOGOSTART
,
#SCROLL 0.85
,
#SCROLL 1
3370,
,
,
,
,
,
08,
,
,
,
,
#END

COURSE:Normal
LEVEL:7
BALLOON:40
#START
,
10000001,
10000001,
10011000,
5,
8,
2220,//7
1111,
1110,
1111,
1110,
1111,
2220,
1111,
1110,
1111,
10111000,
1111,
10111000,
2222,
20222000,
1111,
10111000,
10101011,
10101011,
10101011,
22,
10101011,
10101011,
10101011,
22,
10101011,
10101011,
10101011,
22,
22,
22,
11,
11,
1111,
1111,
3333,
33,
6,
8,
2220,//46
#GOGOSTART
01011011,
01101101,
10110110,
11011010,
1100,
1,
2220,
2220,
01011011,
01101101,
10110110,
11011010,
1100,
1,
2222,
2220,
01011011,
01101101,
10110110,
11011010,
1100,
1,
2222,
2220,
01101101,
10110110,
11011011,
01101010,
#MEASURE 9/8
10100030
#BPMCHANGE 5.31
#SCROLL 0.5
#GOGOEND
0,
#MEASURE 4/4
#BPMCHANGE 170
#SCROLL 0.7
#GOGOSTART
,
#SCROLL 0.85
,
#SCROLL 1
3390,
,
,
,
,
09,
08,
,
,
,
,
#END

COURSE:Easy
LEVEL:4
BALLOON:30
#START
,
1,
1,
11,
5,
8,
2220,//7
11,
1110,
11,
1110,
11,
2220,
11,
1110,
1111,
11,
1111,
11,
2222,
22,
1111,
1110,
1011,
1011,
1011,
22,
1011,
1011,
1011,
22,
1011,
1011,
1011,
22,
22,
22,
11,
11,
1111,
1111,
3333,
33,
6,
8,
,//46
#GOGOSTART
1111,
1111,
1111,
1110,
1,
1,
22,
2220,
1111,
1111,
1111,
1110,
1,
1,
22,
2220,
1111,
1111,
1111,
1110,
1,
1,
22,
2220,
1111,
1111,
1111,
1110,
#MEASURE 9/8
10101010
#BPMCHANGE 5.31
#SCROLL 0.5
#GOGOEND
0,
#MEASURE 4/4
#BPMCHANGE 170
#SCROLL 0.7
#GOGOSTART
,
#SCROLL 0.85
,
#SCROLL 1
3390,
,
,
,
,
09,
08,
,
,
,
,
#END
