//TJADB Project
TITLE:Fuun Shishi
TITLEJA:風雲志士
SUBTITLE:--Kakumi Nishigomi
BPM:135
WAVE:Fuun Shishi.ogg
OFFSET:-2.020
DEMOSTART:18.457

COURSE:Oni
LEVEL:8
BALLOON:10,10,8
SCOREINIT:450
SCOREDIFF:118
#START
#MEASURE 5/4
500000000008000000000000000000000000000000000000000000000000,
#BRANCHSTART r,1,2
#N
#MEASURE 4/4
3033,
3,
3033,
3000101022022000,
3033,
3,
1001201010012010,
500000000000000000000008000000300000300000000000,
1001201010112010,
1001201010221010,
1021102010211020,
1022201020201010,
1001201010211020,
1001201010221020,
1021102010211020,
11221330,
1001201010112010,
1001201010221010,
1021102010211020,
1022201020201010,
1001201010211020,
1001201010221020,
1021102010211020,
500000000000000000000008000000300000300000000000,
3022101011221020,
1022101011221011,
1022102011021020,
1022102022010101,
1022101011221010,
1022101011221010,
1022101020111020,
1022002200303000,
3022101011221020,
1022101011221011,
1022102011021020,
1022102022010101,
1022101011221010,
1022101011221010,
1022101020111020,
1220122000303000,
1110201022112000,
0030222000304030,
3020220210011010,
0030004011221000,
1110220210010110,
1020222010010010,
3004003030040011,
1004004000303000,
1210201210201210,
2012121000001211,
0040000030040030,
4000200022021020,
0012112012121012,
1120000011011010,
03043400,
500000000000000008000000300000300000000000000000,//N57
#GOGOSTART
1001201010112010,
1001201010221010,
1021102010211020,
1022201020201010,
1001201010211020,
1001201010221020,
1021102010211020,
11221330,
1202020110102000,
32323232,
3002201040104010,
4002104040021040,
2101201030304000,//N70
#E
#MEASURE 4/4
3011,
1220,
1011,
10020000,
1011,
10222000,
1001101010011010,
70008110,
1001101011121000,
1001201011221000,
1202120210121110,
1021201020121020,
1002102011222000,
1002102011212000,
1202120210121020,
1011221030404000,
1001101011221020,
1001201011221000,
1202120210121110,
1021201020121010,
1002102011221000,
1022102011211000,
1202120210121010,
70008440,
1021102210101020,
1021102210101022,
1021102110012010,
1021101022121202,
1021102210101020,
1021101220101020,
1021101010211020,
1122102200303000,
1021122210101020,
1021122210101022,
1021122110012010,
1021101022121202,
1021122210101020,
1021122210101020,
1121102011211020,
1000222200303000,
1112020211111022,
0010002200101210,
1220400010011010,
0210021011111020,
1112002010210110,
1022000210210210,
1021021210210211,
1022022002121020,
1112001112001112,
2011111022001111,
0012020010210212,
1000400011211010,
0011221011212011,
2210000011011010,
0012021011120000,
70083300,//E57
#GOGOSTART
1001101011221020,
1001201011221022,
1202120210121110,
1021201020121020,
1002102011221020,
1002102011212022,
1202120210121020,
1011221030404000,
1111100011111000,
1122102101221020,
1021102210211020,
1021102010211020,
1121121120303000,//E70
#M
#MEASURE 4/4
3033,
3002201022202000,
3033,
3002201022102000,
3033,
3002201022202000,
1202102012021020,
500000000000000000000008000000300000300000000000,
1001201010122010,
1002102010122020,
1202120210040040,
3022201022103040,
2002102020122010,
2001201020122020,
2102120210211020,
3004004030404000,
1001201020122010,
1002102010122020,
1202120210040040,
3022201021103040,
2002101020122010,
2001201020122020,
2102120210211020,
111222111222000300300000,
3022102101221020,
1022102101221012,
2011202012021120,
1011202012021121,
1022102102112020,
1022102102112021,
1011202012021120,
1121121100303000,
3012102101221020,
1012102101221012,
2021202012021120,
1021202012021121,
1012102102112020,
1012102102112021,
1021202012021120,
1121121100303000,
2220030021112011,
0040110110403040,
4011011040021012,
0040003021112030,
2220030020120210,
4011011040030040,
3012021040120210,
3003003000404000,
2120102120202120,
1022122010402112,
0040120040030040,
3000403012021040,
3022122021112022,
1220120012021040,
03043400,
111222111200400400000000,//M57
#GOGOSTART
1021201020122010,
1012102010122020,
1202120210040040,
3022201021103040,
2012101020122010,
2021201020122020,
2102120210211020,
3040302120404000,
1202120210211020,
1021102210211020,
1012102021203030,
1021102012021020,
1222102030404000,//M70
#BRANCHEND
#GOGOEND
#END

COURSE:Hard
LEVEL:7
BALLOON:5
SCOREINIT:600
SCOREDIFF:140
#START
#MEASURE 5/4
,
#MEASURE 4/4
3033,
3,
3033,
30000220,
3033,
30000220,
1001101010011010,
500000000000000000000008000000300000300000000000,
1001101010102000,
1001101010222000,
1001102010011020,
1022200010222000,
1001101010102000,
1001101010222000,
1001102010011020,
500000000000000000000008000000300000300000000000,
1001101010102000,
1001101010222000,
1001102010011020,
1022200010222000,
1001101010102000,
1001101010222000,
1001102010011020,
500000000000000000000008000000300000300000000000,
30201122,
1000200010000011,
1000200010011010,
1000200011010100,
10201122,
1000200010011010,
10033030,
3,
30201122,
1000200010000011,
1000200010011020,
1000200011010100,
10201122,
1000200010011010,
10033030,
3,
1110000011101000,
01000343,
4000000010011010,
0010001010111000,
1110000030040030,
4000000030040030,
3004003030040030,
30000110,
1110002220001110,
0022202000001111,
0010000030040030,
4000000010011010,
0011101011101011,
1010000010011010,
03043400,
70000800,//57
#GOGOSTART
1001101010102000,
1001101010222000,
1001102010011020,
1022201010222000,
1001101010102000,
1001101010222000,
1001102010011020,
500000000000000000000008000000300000300000000000,
33,
3333,
1001100010102020,
5,
000000000008000000000000300000300000300000000000,//70
#GOGOEND
,
#END

COURSE:Normal
LEVEL:5
BALLOON:5,8
SCOREINIT:690
SCOREDIFF:190
#START
#MEASURE 5/4
,
#MEASURE 4/4
33,
3,
33,
3,
3033,
3,
33,
600000000000000000000000000008000000000000000000,
10001120,
10001120,
1212,
10000340,
10001120,
10001120,
1212,
500000000000000000000000000000000008000000000000,
10001120,
10001120,
1212,
1033,
10001120,
10001120,
1212,
500000000000000000000008000000300000300000000000,
10000110,
10000004,
40002022,
2022,
30000110,
10001011,
1033,
3,
30000110,
10000004,
4022,
2022,
30000110,
10001011,
1033,
3,
30001110,
03000111,
10401011,
03001110,
30001001,
1000000030030030,
34,
3,
33033033,
03300000,
03001001,
1410,
03303303,
3000000011001010,
,
70000800,//57
#GOGOSTART
10001120,
10001120,
1212,
10001111,
10001120,
10001120,
1212,
500000000000000000000000000000000008000000000000,
33,
9009,
8,
,
10203330,//70
#GOGOEND
,
#END

COURSE:Easy
LEVEL:4
BALLOON:5,8
SCOREINIT:600
SCOREDIFF:200
#START
#MEASURE 5/4
,
#MEASURE 4/4
3,
3,
33,
3,
3,
3,
33,
600000000000000000000000000008000000000000000000,
1011,
1012,
11,
1110,
1011,
1012,
11,
1130,
1011,
1012,
11,
1110,
1011,
1012,
11,
500000000000000000000000000008000000000000000000,
3003,
3,
4004,
4,
3003,
31,
1033,
3,
3003,
3,
4004,
4,
3003,
31,
1033,
3,
1011,
,
1011,
0011,
1011,
1011,
34,
3,
11,
1001,
11,
11,
33,
3011,
,
70000800,//57
#GOGOSTART
1011,
1012,
11,
1110,
1011,
1012,
11,
1130,
33,
9009,
8,
,
1033,//70
#GOGOEND
,
#END
