//TJADB Project
TITLE:Paradisus-Paradoxum -Old Audio-
TITLEJA:Paradisus-Paradoxum
SUBTITLE:--MYTH & ROID/Re:Zero -Kara Hajimeru Isekai Seikatsu-
SUBTITLEJA:旧音源 「Re:ゼロから始める異世界生活」より
BPM:201
WAVE:Paradisus-Paradoxum(old).ogg
OFFSET:-7.964
DEMOSTART:9.728 //shinuchi:
10490/5770/3090/2160

COURSE:Oni
LEVEL:8
BALLOON:10
SCOREINIT:720,2300
SCOREDIFF:200
#START
34043403,
0040300011102000,
#GOGOSTART
1110201000201020,
0010200011102000,
1110201000201020,
0020102011112222,
10012000,
10012000,
500000000000000000000000000000000008000000300000,
00300400, //10
#GOGOEND
30210120,
21210220,
11210120,
2210201000201020,
1110201000102000,
2110201000201020,
0010201120102000,
2210201000221120, //18
00200200,
10020020,
500000000000000000000000000008000000200000000000,
00200200,
500000000000000000000000000008000000200000000000,
00200012,
700008,
2020222220200000, //26
10210120,
1000201000112000,
10210120,
1000201000102222,
10210120,
1000201000112000,
1111202011112020,
100000001000000010000000000000000000000000000000, //34
30221021,
10221021,
10221021,
1000202011112222,
10221021,
10221020,
1110201120102011,
2011201120112010,
44043403,
0040300011102000, //44
#GOGOSTART
1110201000211020,
0011202011102000,
1110201000211020,
0020102011102220,
1110200011102220,
1110201011102000,
500000000000000000000000000000000000000008000000,
#GOGOEND
2010201011112000, //52
#GOGOSTART
1110201000211020,
0011202011112000,
1111201000211020,
0020102011112222,
10012000,
10012000,
500000000000000000000000000000000008000000300000,
00300400, //60
#GOGOEND
3000201000112000,
21210220,
1000201120102000,
2210201011112222,
1011201020002010,
0010202110102010,
0011201020002010,
0011201120111120,
0,
0,
0, //71
#END

COURSE:Hard
LEVEL:6
BALLOON:5,15,8,6
SCOREINIT:810,3460
SCOREDIFF:240
#START
34043403,
03301020,
#GOGOSTART
10210102,
01201020,
10210127,
00080000,
10012000,
10012000,
500000000000000000000000000000000008000000300000,
00300300, //10
#GOGOEND
30210120,
11210220,
10210120,
22120222,
10210120,
11210121,
01201120,
2020102000202220, //18
00200200,
10020020,
500000000000000000000000000008000000200000000000,
00200200,
500000000000000000000000000008000000200000000000,
00200012,
7,
00000800, //26
10210120,
10210120,
10210120,
10210120,
500000000000000000000000000000000000000000000008,
00210120,
700008,
111000, //34
10221010,
10221020,
10221010,
10221020,
10221010,
10221020,
10221020,
11201120,
34043403,
0030300011102000, //44
#GOGOSTART
10210102,
0010200011102000,
10210102,
0010200011102000,
1000200011102000,
1000222010002000,
500000000000000000000000000000000000000008000000,
#GOGOEND
3000000011102000, //52
#GOGOSTART
10210102,
0010200011102000,
10210127,
00080000,
10012000,
10012000,
500000000000000000000000000000000008000000300000,
00300300, //60
#GOGOEND
30210120,
11210220,
10210120,
2020102011102000,
11212012,
02121202,
02012012,
0010202010202220,
0,
0,
0, //71
#END

COURSE:Normal
LEVEL:5
BALLOON:9,7,12,9,7,7
SCOREINIT:1140,6200
SCOREDIFF:408
#START
7,
0800,
#GOGOSTART
10110102,
0,
10110102,
0,
12,
12,
9009,
8, //10
#GOGOEND
12,
10110000,
12,
10220000,
12,
10110000,
12,
10220222, //18
00100100,
10010010,
500000000000000000000008000000000000200000000000,
00100100,
500000000000000000000008000000000000200000000000,
0202,
7,
00000800, //26
10110110,
11011020,
500000000000000000000008000000000000100000000000,
00100200,
500000000000000000000000000000000000000000000008,
00100200,
7,
0811, //34
1011,
1022,
2022,
2011,
1022,
2012,
10111020,
3344,
3,
0012, //44
#GOGOSTART
10110102,
0012,
10110102,
0022,
1022,
10102220,
7,
#GOGOEND
8012, //52
#GOGOSTART
10110102,
0012,
10220102,
0,
12,
12,
9009,
8, //60
#GOGOEND
12,
10110000,
12,
10220220,
10111002,
02022201,
01011005,
000000000000000000000000000000000000000008000000,
0,
0,
0, //71
#END

COURSE:Easy
LEVEL:3
BALLOON:6,5,8,10,5,5
SCOREINIT:1150,11550
SCOREDIFF:740
#START
7,
0800,
#GOGOSTART
10010101,
0,
10010101,
0,
12,
12,
9009,
8, //10
#GOGOEND
11,
1,
11,
2,
11,
1,
11,
2, //18
1,
1,
1002,
0,
1002,
0,
7,
00000800, //26
10010000,
10010000,
10010020,
0500,
000000000000000000000000000000000000000000000008,
0700,
0,
0800, //34
1,
1,
2,
2,
1,
1,
11,
3333,
3,
0, //44
#GOGOSTART
10010101,
0,
10010101,
0,
12,
12,
7,
#GOGOEND
8, //52
#GOGOSTART
10010101,
0,
10010101,
0,
12,
12,
9009,
8, //60
#GOGOEND
11,
1,
11,
2,
10101005,
000000000000000000000000000008000000000000000000,
10101005,
000000000000000000000000000000000000000008000000,
0,
0,
0, //71
#END
