//TJADB Project
TITLE:Gekkabijin
TITLEJA:月下美人
SUBTITLE:--Kakumi Nishigomi
BPM:150
WAVE:Gekkabijin.ogg
OFFSET:-1.803
DEMOSTART:25.794

COURSE:Oni
LEVEL:8
BALLOON:30
SCOREINIT:380
SCOREDIFF:95
#START
500008000000000000000000000000000000000000000000,
3202,
#BRANCHSTART r,1,2
#N
0202,
3202,
0000200000002011,
1000001000000001,
11000100,
1000000000000001,
11000100,
1000000000000001,
11000100,
1000000000000001,
1010001000111111,
112112111100,
112122100000,
1011101110111110,
1011102011201021,
1011101110111110,
1011102011201122,
1011101110111110,
1011102011201021,
1011101110111110,
1011102011211222,
1011101110111110,
1011102011201021,
1011101110111110,
1011102011201122,
1011101110111110,
1011102011201021,
1011101110111110,
1011102011211121,
#MEASURE 3/4
112112100,
#BARLINEOFF
112112100,
#MEASURE 4/4
122122122100,
#BARLINEON
112122200000,
1022002200220022,
0022002200220022,
1022002200220022,
0022002200220022,
1022002210220022,
1022002210220022,
1022102210221022,
11111110,
1022201010222011,
1010202020222020,
1022201010222011,
1010202020222010,
1022201010222011,
1010202220202020,
12221122,
11222222,
1022120210221020,
1022120210221020,
1022120210221020,
1022102210221022,
1022120210221020,
1022120210221020,
1022120210221020,
11111110,
12021202,
12021202,
1122112210101010,
1122112210101010,
1212121210101010,
1212121210101010,
10110111,
30330333,
3000000022222022,
#GOGOSTART
1011101110111110,
1011102011221021,
1011101110111110,
1011102011221122,
1011101110111110,
1011102011221021,
1011101110111110,
1011102011211222,
1010222010102220,
1010222010102220,
1010222010102220,
1010222010102220,
33033303,
33033303,
#MEASURE 3/4
112221200,
#BARLINEOFF
112221200,
#MEASURE 4/4
112212212300,
#E
,
1001,
2,
1011202110202021,
1010202210112022,
1011202110202021,
1010202210112022,
1011202110202021,
1010202220202021,
1010202020202021,
11222222,
112112111100,
221221200000,
1022102211011020,
1022102112021020,
1022102211011020,
1022102112021020,
1022102211011020,
1022102112021020,
1022102010201020,
1022202020201111,
2022102211011022,
1022102112021022,
1022102211011022,
1022102112011022,
1022201020101020,
1022201022101020,
1022201220121022,
1012202211111000,
#MEASURE 3/4
112112100,
#BARLINEOFF
221221200,
#MEASURE 4/4
112112112100,
#BARLINEON
221222200000,
1122102210221212,
1022102210221010,
1122102011221020,
1022102210221010,
1222102012221020,
1022102210221010,
12222222,
11111112,
1022202020222020,
1010202020222020,
1020202020222011,
1010202020222020,
1022202020222022,
1012202220202220,
1022202210122022,
1012202210122022,
1011201022202010,
1022102011101020,
1011201022202011,
1022102210102020,
1011201022102010,
1022102011102010,
1011201022102010,
11111112,
7,
0008,
12121212,
1022102010221020,
1022102210221022,
1212121212121212,
10110222,
30330444,
3000000011111020,
#GOGOSTART
1022102211011020,
1022102112021020,
1022102211011020,
1022101011112222,
1022102211011020,
1022102112021020,
1022102211011020,
12020440,
11021102,
11021222,
1012202010112020,
1012202011112222,
1012202010112020,
1012202040404040,
#MEASURE 3/4
112112100,
#BARLINEOFF
221221200,
#MEASURE 4/4
112112112300,
#M
,
2,
,
1110111011202020,
1110111011202000,
1110111011202020,
1110111011202000,
1122101022112020,
11221122,
1120211022112020,
1120211020211220,
322222111100,
122111300000,
1220112020101202,
1120201120201000,
1220112020101202,
1120201120201000,
1020211022101220,
1122101020201120,
2011202010122010,
1020201012211221,
1020201010220110,
2021102020112020,
1012201120201010,
2211202112201120,
2011202010122010,
1022101020211022,
1012201120211022,
1012211220101000,
#MEASURE 3/4
111111100,
#BARLINEOFF
222222200,
#MEASURE 4/4
122122122100,
#BARLINEON
111222400000,
1022100010221000,
1220100012201000,
1022101022101022,
1012201012201000,
1022100010221000,
1220100012201000,
1022101022101022,
1010221010404000,
1122101022103000,
2211202011204000,
10122112,
2000101020211020,
2000101020211022,
1012201120201120,
2011202011202010,
1221122110221122,
1012201010202000,
1012201010202000,
1012201010202011,
2021102210001020,
2011202011221120,
2011202011221120,
2010102020112020,
1102201102201122,
1102201102201010,
2211221122112020,
1122112211221122,
1122111111111110,
1111112011111120,
1111112011111120,
30330333,
30330333,
3000000022222022,
#GOGOSTART
1012201122010122,
1012203012211022,
1012201122010122,
1012201122103022,
1120211022101220,
1120211022101220,
1122103022112040,
1122112211202000,
1102201012021012,
2101202011221122,
1102201012021012,
2101202011221122,
1102201012021120,
2101221012021120,
#MEASURE 3/4
311111100,
#BARLINEOFF
311111100,
#MEASURE 4/4
311311311300,
#BRANCHEND
#GOGOEND
#END

COURSE:Hard
LEVEL:7
BALLOON:44
SCOREINIT:520
SCOREDIFF:120
#START
,
3,
,
3,
0000000000000011,
10000222,
11000220,
10000222,
11000220,
10000222,
11000022,
10000222,
11000000,
300300111100,
300222200000,
1011102010111000,
10201202,
1011102010111020,
10201222,
1011102010111000,
10201202,
1011102010111020,
11221120,
1011102010111000,
10201202,
1011102010111020,
10201222,
1011102010111000,
10201202,
1011102010111020,
10201220,
#MEASURE 3/4
300111100,
400222200,
#MEASURE 4/4
300300111100,
300222200000,
1110002011100020,
1110002011100000,
1110002011100020,
1110002011100000,
1110111011101000,
11112220,
11112220,
22202020,
10220120,
11220120,
10220120,
11220120,
10220120,
11220120,
10001100,
11000000,
1022202000201020,
1022202000201020,
1022202010202022,
2010102220101010,
1022202000201020,
1022202000201011,
12222112,
11111110,
11221110,
11221110,
12121110,
7,
,
00000800,
10110111,
10110111,
500000000000000000000000000000000008000000000000,//68
#GOGOSTART
1011101010111000,
10201120,
1011101010111000,
10201120,
1011101010111000,
10201120,
1011101010111000,
11221120,
11011101,
11011101,
22022202,
22022202,
5,
000000000000000000000000000000000000000008000000,
#MEASURE 3/4
300111100,
400222200,
#MEASURE 4/4
300111111100,
,//86
#GOGOEND
,
,
#END

COURSE:Normal
LEVEL:6
BALLOON:33
SCOREINIT:720
SCOREDIFF:140
#START
,
3,
2,
3,
2000000000000011,
10000222,
11000000,
10000222,
11000000,
10000222,
11000000,
10000222,
11000000,
3330,
3330,
10101110,
10200202,
10101110,
10200202,
10101110,
10200202,
10101110,
500000000000000000000000000000000008000000000000,
10101110,
10200202,
10101110,
1202,
10101110,
1202,
1011100010101000,
500000000000000000000000000000000008000000000000,
#MEASURE 3/4
3,
3,
#MEASURE 4/4
1111,
3330,
1212,
1202,
1212,
1202,
1212,
1202,
11,
1111,
10001110,
11002220,
10001110,
11002220,
10001110,
11002220,
10001100,
500000000000000000000000000000000008000000000000,
10101011,
10101011,
1111,
11102220,
10101011,
10101011,
10101011,
11102220,
1,
11000000,
1111,
7,
,
00000800,
10110111,
10110111,
500000000000000000000000000000000008000000000000,//68
#GOGOSTART
10101110,
1000200000222000,
10101110,
1000200000222000,
10101110,
1000200000222000,
10101110,
500000000000000000000000000000000008000000000000,
11001100,
11001100,
22002200,
22002200,
5,
000000000000000000000000000000000008000000000000,
#MEASURE 3/4
300111100,
3,
#MEASURE 4/4
3333,
,//86
#GOGOEND
,
,
#END

COURSE:Easy
LEVEL:4
BALLOON:22
SCOREINIT:580
SCOREDIFF:160
#START
,
3,
,
3,
,
1,
11000000,
1,
11000000,
1,
11000000,
11,
11000000,
3,
3330,
1100,
1110,
1100,
1110,
1100,
1110,
1100,
500000000000000000000000000008000000000000000000,
1100,
1110,
1100,
1110,
1100,
1110,
1100,
500000000000000000000000000008000000000000000000,
#MEASURE 3/4
3,
3,
#MEASURE 4/4
11,
3330,
12,
1110,
12,
1110,
1111,
1,
1,
1111,
11,
22,
11,
22,
11,
22,
1111,
500000000000000000000000000008000000000000000000,
10002200,
10002200,
10002200,
1110,
10002200,
10002200,
10002200,
10002200,
1,
1,
11,
7,
,
00000800,
10110000,
10110000,
500000000000000000000000000008000000000000000000,//66
#GOGOSTART
1100,
1110,
1100,
1110,
1100,
1110,
1100,
500000000000000000000000000008000000000000000000,
10001100,
10002200,
10001100,
10002200,
5,
000000000000000000000000000008000000000000000000,
#MEASURE 3/4
3,
3,
#MEASURE 4/4
3333,
,//82
#GOGOEND
,
,
#END
