//TJADB Project
TITLE:Gasshou Stabofe!
TITLEJA:合唱スタボーフェ!
SUBTITLE:--Masako Ogami feat. Danchinomiya & Tama☆tai
SUBTITLEJA:with たま☆たい feat.団地ノ宮
BPM:156
WAVE:Gasshou Stabofe!.ogg
OFFSET:-1.704
DEMOSTART:65.293 //Shinuchi:
6060/3790/2190/1470

COURSE:Oni
LEVEL:9
BALLOON:
SCOREINIT:480,1490
SCOREDIFF:125
#START
#BARLINEOFF
#MEASURE 2/4
22112010,
#BARLINEON
#MEASURE 4/4
1000200211102010,
0011102011112222,
1000200211102020,
0022101011222120,
1011211220112020,
0011102020102222,
1000200211101020,
0022201011222211,
1000200222111010,
0011102010122000, //11
1000201110102012,
1011102000221010,
0011201012102010,
1121202000112000,
0000202220112010,
0011102000102011,
1000112000104000,
#MEASURE 3/4
003040400022, //19
#MEASURE 4/4
1000201110201011,
2000102000221020,
0011102012101020,
1121202000112000,
0000202220112010,
0011102000221211,
1011201000221000,
#MEASURE 3/4
121021222000, //27
#MEASURE 4/4
#GOGOSTART
1010202210102010,
0011201110102010,
0022102000211020,
0020102022121000,
2211102220102010,
0011202110102010,
0012201210212010,
0022211221211212,
1000002220111010,
0010202120112010,
0022101000211010,
0011111211211000, //39
#GOGOEND
#MEASURE 7/4
1000001120002010001120201120,
1000101220111010000011112000, //41
#MEASURE 4/4
#GOGOSTART
2011101000211010,
0022201220111000,
2011102000121020,
0021102022111020,
1011201000112010,
0022101020112010,
#GOGOEND
1010222210102010,
1022201020104000, //49
#GOGOSTART
2011102000121020,
0012102022112010,
2210201000111040,
03030401,
2011201000102022,
#MEASURE 3/4
112001, //55
#GOGOEND
#MEASURE 4/4
1010222210102010,
1010212210202010,
1020112210101020,
3022,
1000001120101010,
0000100022100022,
21012011,
0010200021102210, //63
#GOGOSTART
1010202210102010,
0011201022221112,
1010202211121010,
#MEASURE 5/4
00112121221121121222,
#MEASURE 4/4
1010202220102010,
0022201011221221,
1010101220102010,
#MEASURE 2/4
00112120,
#MEASURE 4/4
1112221211122112,
1112121121121122,
1200000000000000,
#GOGOEND
0,
0, //76
#END

COURSE:Hard
LEVEL:6
BALLOON:
SCOREINIT:530,2340
SCOREDIFF:145
#START
#BARLINEOFF
#MEASURE 2/4
04,
#BARLINEON
#MEASURE 4/4
10102112,
01011120,
10101212,
01011120,
40101104,
01012202,
10102112,
0010001011102000,
10101212,
0010001011102000, //11
10101120,
10110211,
01201120,
10110440,
00202111,
01220112,
10120440,
#MEASURE 3/4
044403, //19
#MEASURE 4/4
30101120,
10110211,
01201120,
11120440,
00202111,
01220112,
10210440,
#MEASURE 3/4
111010222000, //27
#MEASURE 4/4
#GOGOSTART
10201121,
01201121,
02120112,
01112100,
1111100020101010,
01201121,
01201121,
02212121,
3000000020111010,
01201121,
02110211,
01112120, //39
#GOGOEND
#MEASURE 7/4
10012011012022,
10112011000040, //41
#MEASURE 4/4
#GOGOSTART
11210121,
0020201010111000,
11210201,
0020100020222000,
12210221,
0010102020111000,
#GOGOEND
11220210,
1011101010004000, //49
#GOGOSTART
11210221,
0010101020222000,
11210104,
03030402,
1010202000100022,
#MEASURE 3/4
233002, //55
#GOGOEND
#MEASURE 4/4
20220110,
20220110,
20220110,
1022,
10012011,
00102202,
10012002,
00102220, //63
#GOGOSTART
10102112,
0020002011102010,
10102112,
#MEASURE 5/4
00100010111011102222,
#MEASURE 4/4
20202112,
0010201011102010,
10201121,
#MEASURE 2/4
0120,
#MEASURE 4/4
3000222030002220,
3000222030002220,
1100000000000000,
#GOGOEND
0,
0, //76
#END

COURSE:Normal
LEVEL:6
BALLOON:13
SCOREINIT:740,4120
SCOREDIFF:233
#START
#BARLINEOFF
#MEASURE 2/4
0,
#BARLINEON
#MEASURE 4/4
10100202,
00001110,
10100202,
00002220,
7,
000000000000000000080000000000000000000000000000,
10100202,
00001110,
10100202,
00002220, //11
0110,
10010001,
01001010,
11010030,
00202002,
02020000,
20020040,
#MEASURE 3/4
0, //19
#MEASURE 4/4
0110,
10010001,
01001010,
11110030,
00202002,
02020000,
30030030,
#MEASURE 3/4
0, //27
#MEASURE 4/4
#GOGOSTART
10011011,
00011011,
01110111,
01101000,
20022022,
00022022,
01101111,
02202020,
30011011,
00022022,
01110111,
02220200, //39
#GOGOEND
#MEASURE 7/4
20002202000010,
10102002000000, //41
#MEASURE 4/4
#GOGOSTART
10110101,
01102000,
10110101,
0220,
10110101,
02202000,
#GOGOEND
11020250,
000000000000000000000000000008000000000000000000, //49
#GOGOSTART
10110101,
02222000,
11010104,
03030300,
10110104,
#MEASURE 3/4
040, //55
#GOGOEND
#MEASURE 4/4
20220020,
10220020,
10220020,
4,
10001001,
00002200,
10001002,
00002220, //63
#GOGOSTART
10102202,
01011110,
10102205,
#MEASURE 5/4
000000000000000000000000000000000000000008000000000000000000,
#MEASURE 4/4
10102202,
01011020,
10201101,
#MEASURE 2/4
01,
#MEASURE 4/4
34,
34,
3,
#GOGOEND
0,
0, //76
#END

COURSE:Easy
LEVEL:4
BALLOON:10,5,5
SCOREINIT:680,7220
SCOREDIFF:268
#START
#BARLINEOFF
#MEASURE 2/4
0,
#BARLINEON
#MEASURE 4/4
10100101,
0,
20200202,
0,
7,
000000000000000000080000000000000000000000000000,
10100101,
0,
20200202,
0, //11
1100,
1,
1100,
30030030,
0111,
10020000,
30030040,
#MEASURE 3/4
0, //19
#MEASURE 4/4
0111,
1,
1100,
30030030,
0111,
10020000,
30030030,
#MEASURE 3/4
0, //27
#MEASURE 4/4
#GOGOSTART
1011,
0011,
0101,
0110,
1011,
0011,
0101,
0220,
3033,
0011,
0101,
0220, //39
#GOGOEND
#MEASURE 7/4
20002002000000,
20002002000000, //41
#MEASURE 4/4
#GOGOSTART
1100,
1110,
10100007,
00000800,
1100,
2220,
#GOGOEND
5,
000000000000000000000000000008000000000000000000, //49
#GOGOSTART
1100,
1220,
10100007,
00000800,
1100,
#MEASURE 3/4
440, //55
#GOGOEND
#MEASURE 4/4
10010050,
000000000000000000000000000008000000000000000000,
10010010,
4,
11,
2,
12,
2, //63
#GOGOSTART
1011,
1,
1011,
#MEASURE 5/4
1,
#MEASURE 4/4
1022,
2,
1022,
#MEASURE 2/4
2,
#MEASURE 4/4
33,
33,
3,
#GOGOEND
0,
0, //76
#END
