//TJADB Project
TITLE:Famicom Medley
TITLEJA:ファミコンメドレー
SUBTITLE:--Hirokazu Tanaka/Balloon Fight & Dr. Mario & Excitebike
SUBTITLEJA:バルーンファイト・ドクターマリオ・エキサイトバイク
BPM:150.18
WAVE:Famicom Medley.ogg
OFFSET:-1.704
DEMOSTART:1.704 //Note: Oni/Hard #94 is slightly tweaked to include the starting don note into gogotime //shinuchi:
5250/3580/2150/1310

COURSE:Oni
LEVEL:9
BALLOON:4,4,4,3,3,3,3,3,3,14,10
SCOREINIT:500,1440
SCOREDIFF:113
#START
20022200,
222222,
500000000000000000000000000000000000000008000000,
700000000800000070000000080000007000000008000000, //4
3020221020112070,
008000100000200200100000200000100100200000100000,
1020221020112070,
008000100000200200100000200000100100200000100000,
1020221020112070,
008000100000200200100000200000100100200000100000,
1020221020112010,
221122112211, //12
2000201020002011,
200000200000100000100000700000008000100000100100,
1022001120102011,
200020001000100020002000100010002000200000100100,
700000008000200000100100200200200000100000200000,
0020101122201070,
008000200200000000100100200200200000200000100000,
2201102211022010, //20
#BPMCHANGE 150.24
11212212,
11212212, //22
1120102010102020,
1120102010000000,
1120102010102020,
1210121012101210,
1120102010102020,
1120102010000000,
1120102010102020,
#GOGOSTART
7008, //30
#GOGOEND
1120102010102010,
1120201010000000,
1120102010102010,
1022202010221000,
1120201010003000,
1120201010003000,
1120102010202010,
2220222040221000, //38
#GOGOSTART
1021201210212012,
1011221010122210,
1021201210212012,
1011221020112110,
1021201210212012,
1011221010122210,
1021201210212012,
500000000000000000000000000000000008000000000000,
1120201010003000,
1120201010003000,
1120102010202010,
2220222040221000, //50
#GOGOEND
#MEASURE 8/4
#BPMCHANGE 225.4
#SCROLL 0.5
0020202021010000,
0020202021010000,
000000200020200020200020200000200020200200000000,
20200020002000202222200000000000,
#MEASURE 4/4
#BPMCHANGE 120.17
#SCROLL 1
121210121210121210101010,
100100111100,
101010100000100000121210,
#MEASURE 5/4
11200,
#MEASURE 3/4
#BPMCHANGE 85.85
0, //59
#MEASURE 1/4
#BPMCHANGE 200
#SCROLL 0.5
0,
#SCROLL 0.51
0,
#SCROLL 0.53
0,
#SCROLL 0.57
0,
#SCROLL 0.65
0,
#SCROLL 0.81
0,
#SCROLL 1
0,
0,
0,
0,
0, //70
#MEASURE 6/4
#SCROLL 1
111111111111111111111110,
302221012222101222101000,
#BARLINEOFF
0,
#BARLINEON
#MEASURE 1/4
#SCROLL 0.5
0,
#SCROLL 0.53
0,
#SCROLL 0.57
0,
#SCROLL 0.65
0,
#SCROLL 0.81
0, //78
#SCROLL 1
#MEASURE 9/4
003022221010030221030210302210100000,
300000200200000100100000000000300000200200100000000100700000000000000000000000000000000000000000000008000000,
#MEASURE 1/4
68, //81
#MEASURE 8/4
0,
#MEASURE 4/4
1110302222000000,
#MEASURE 13/4
1011111110302222012212222101222210122221012222101222, //84
#BARLINEOFF
#MEASURE 4/4
1,
#BARLINEON
#MEASURE 1/4
#SCROLL 0.5
0,
#SCROLL 0.51
0,
#SCROLL 0.53
0,
#SCROLL 0.57
0,
#SCROLL 0.65
0,
#SCROLL 0.81
0,
#MEASURE 5/4
#SCROLL 1
11111110302103022100, //92
#MEASURE 11/4
101111103022210030222100101110302222100
#GOGOSTART
30222,
#BARLINEOFF
#MEASURE 13/4
1
#GOGOEND
00000000000000000000000000000000000000000000000000000000000000000000000000000000000000000000000000000000000000000000000000000000000000000000000000000000000, //94
#BARLINEON
#MEASURE 6/4
#BPMCHANGE 257.5
#SCROLL 0.5
021010010210,
#MEASURE 8/4
1001021010101101,
0000001010221222,
1022122211010101,
1
#SCROLL 1
0, //99
#END

COURSE:Hard
LEVEL:7
BALLOON:10,8
SCOREINIT:610,2420
SCOREDIFF:158
#START
0,
0,
5,
000000000000000000000000000000000008000000000000, //4
10212101,
0011101000102010,
10212101,
0011101000102020,
10212101,
0011101000102010,
10212101,
500000000000000000000000000000000000000000000008, //12
00212021,
02112202,
0022001000002020,
444333,
30212221,
02112202,
0022001000002020,
444333, //20
#BPMCHANGE 150.24
33000000,
33000000, //22
12121122,
12121000,
12121122,
1110111011101110,
12121122,
12121000,
12121122,
#GOGOSTART
7008, //30
#GOGOEND
1110202010102020,
1110202010000000,
1110202010102010,
12212010,
1110201010003000,
1110201010003000,
1110202011102020,
3440, //38
#GOGOSTART
1011101110111010,
500000000000000000000000000000000008000000000000,
2022202220222020,
500000000000000000000000000000000008000000000000,
1011101110111010,
500000000000000000000000000000000008000000000000,
2022202220222020,
500000000000000000000000000000000008000000000000,
1110201010003000,
1110201010003000,
1110202011102020,
3440, //50
#GOGOEND
#MEASURE 8/4
#BPMCHANGE 225.4
#SCROLL 0.5
0020202022020000,
0020202022020000,
0020200020022000,
2202020220000000,
#MEASURE 4/4
#BPMCHANGE 120.17
#SCROLL 1
111101111101,
100100111100,
111100100111,
#MEASURE 5/4
11200,
#MEASURE 3/4
#BPMCHANGE 85.85
0, //59
#MEASURE 1/4
#BPMCHANGE 200
#SCROLL 0.5
0,
#SCROLL 0.51
0,
#SCROLL 0.53
0,
#SCROLL 0.57
0,
#SCROLL 0.65
0,
#SCROLL 0.81
0,
#SCROLL 1
0,
0,
0,
0,
0, //70
#MEASURE 6/4
#SCROLL 1
500000000000000000000000000000000000000000000000000000000000000008000000,
300001010000101000101000,
#BARLINEOFF
0, //73
#BARLINEON
#MEASURE 1/4
#SCROLL 0.5
0,
#SCROLL 0.53
0,
#SCROLL 0.57
0,
#SCROLL 0.65
0,
#SCROLL 0.81
0,
#MEASURE 9/4
#SCROLL 1
003000001010030001030010300010100000,
300000000000000100100000000000300000000000100000000100700000000000000000000000000000000000000000000008000000,
#MEASURE 1/4
68, //81
#MEASURE 8/4
0,
#MEASURE 4/4
500008000000300000000000000000000000000000000000,
#MEASURE 13/4
500000000000000000000008000000300000000000000000000100000000100000000000000100000100000000000000100000100000000000000100000100000000000000100000100000000000, //84
#BARLINEOFF
#MEASURE 4/4
1,
#BARLINEON
#MEASURE 1/4
#SCROLL 0.5
0,
#SCROLL 0.51
0,
#SCROLL 0.53
0,
#SCROLL 0.57
0,
#SCROLL 0.65
0,
#SCROLL 0.81
0, //91
#MEASURE 5/4
#SCROLL 1
500000000000000008000000300000000100000300000000000100000000,
#MEASURE 11/4
500000000000000008000000300000000000000100000000300000000000000100000000500000000008000000300000000000000000100000000
#GOGOSTART
300000000000000,
#BARLINEOFF
#MEASURE 13/4
1
#GOGOEND
00000000000000000000000000000000000000000000000000000000000000000000000000000000000000000000000000000000000000000000000000000000000000000000000000000000000, //94
#BARLINEON
#MEASURE 6/4
#BPMCHANGE 257.5
#SCROLL 0.5
022010010220,
#MEASURE 8/4
1001022010101101,
0000001010222011,
1022201011010101,
1
#SCROLL 1
0, //99
#END

COURSE:Normal
LEVEL:6
BALLOON:2,2,2,2,2,2,8,6,7
SCOREINIT:810,4440
SCOREDIFF:220
#START
0,
0,
5,
000000000000000000000000000000000008000000000000, //4
10011100,
01210111,
10011100,
01210111,
10011100,
01210111,
10011100,
500000000000000000000000000000000000000000000008, //12
0101,
000708708708,
0202,
500000000000000000000000000000000000000000000008,
0101,
000708708708,
0202,
333333, //20
#BPMCHANGE 150.24
33000000,
33000000, //22
10101110,
1110,
10101110,
3333,
10101110,
1110,
10101110,
#GOGOSTART
7008, //30
#GOGOEND
20202220,
2220,
20202220,
20222020,
10111000,
10111000,
10101110,
4440, //38
#GOGOSTART
1012,
500000000000000000000000000000000008000000000000,
2012,
500000000000000000000000000000000008000000000000,
1012,
500000000000000000000000000000000008000000000000,
2012,
500000000000000000000000000000000008000000000000,
10111030,
10111030,
10101110,
4440, //50
#GOGOEND
#MEASURE 8/4
#BPMCHANGE 225.4
#SCROLL 0.5
0020202020020000,
0020202020020000,
02202020,
78,
#MEASURE 4/4
#BPMCHANGE 120.17
#SCROLL 1
100100100111,
100100111100,
111100100111,
#MEASURE 5/4
11200,
#MEASURE 3/4
#BPMCHANGE 85.85
0, //59
#MEASURE 1/4
#BPMCHANGE 200
#SCROLL 0.5
0,
#SCROLL 0.51
0,
#SCROLL 0.53
0,
#SCROLL 0.57
0,
#SCROLL 0.65
0,
#SCROLL 0.81
0,
#SCROLL 1
0,
0,
0,
0,
0, //70
#MEASURE 6/4
#SCROLL 1
500000000000000000000000000000000000000000000000000000000000000008000000,
300000010000001000001000,
#BARLINEOFF
0, //73
#BARLINEON
#MEASURE 1/4
#SCROLL 0.5
0,
#SCROLL 0.53
0,
#SCROLL 0.57
0,
#SCROLL 0.65
0,
#SCROLL 0.81
0,
#MEASURE 9/4
#SCROLL 1
003000000000030000030000300000000000,
300000000000000000000000000000300000000000000000000000700000000000000000000000000000000000000000000008000000,
#MEASURE 1/4
68, //81
#MEASURE 8/4
0,
#MEASURE 4/4
500008000000300000000000000000000000000000000000,
#MEASURE 13/4
500000000000000000000008000000300000000000000000000100000000100000000000000000000100000000000000000000100000000000000000000100000000000000000000100000000000, //84
#BARLINEOFF
#MEASURE 4/4
1,
#BARLINEON
#MEASURE 1/4
#SCROLL 0.5
0,
#SCROLL 0.51
0,
#SCROLL 0.53
0,
#SCROLL 0.57
0,
#SCROLL 0.65
0,
#SCROLL 0.81
0, //91
#MEASURE 5/4
#SCROLL 1
500000000000000008000000300000000000000300000000000000000000,
#MEASURE 11/4
500000000000000008000000300000000000000000000000300000000000000000000000500000000008000000300000000000000000000000000
#GOGOSTART
300000000000000,
#GOGOEND
#BARLINEOFF
#MEASURE 13/4
0, //94
#BARLINEON
#MEASURE 6/4
#BPMCHANGE 257.5
#SCROLL 0.5
000010010000,
#MEASURE 8/4
1001000010101002,
00011020,
100000000000000000000000200000000000000000000000500000000000000000000000000008000000000000000000,
2
#SCROLL 1
0, //99
#END

COURSE:Easy
LEVEL:4
BALLOON:2,2,2,2,2,2,5,5,5
SCOREINIT:660,6580
SCOREDIFF:183
#START
0,
0,
5,
000000000000000000000000000008000000000000000000, //4
11,
1202,
11,
1202,
11,
1202,
11,
500000000000000000000000000000000000000008000000, //12
0101,
000708708708,
0202,
500000000000000000000000000000000000000008000000,
0101,
000708708708,
0202,
500000000000000000000000000008000000000000000000, //20
#BPMCHANGE 150.24
3,
3, //22
11,
1110,
11,
3333,
11,
1110,
11,
#GOGOSTART
7008, //30
#GOGOEND
22,
2220,
22,
2220,
1110,
1110,
1111,
4440, //38
#GOGOSTART
1011,
500000000000000000000000000008000000000000000000,
2022,
500000000000000000000000000008000000000000000000,
1011,
500000000000000000000000000008000000000000000000,
2022,
500000000000000000000000000008000000000000000000,
1110,
1110,
1111,
4440, //50
#GOGOEND
#MEASURE 8/4
#BPMCHANGE 225.4
#SCROLL 0.5
0020002000020000,
0020002000020000,
02202020,
78,
#MEASURE 4/4
#BPMCHANGE 120.17
#SCROLL 1
1011,
1011,
1011,
#MEASURE 5/4
11200,
#MEASURE 3/4
#BPMCHANGE 85.85
0, //59
#MEASURE 1/4
#BPMCHANGE 200
#SCROLL 0.5
0,
#SCROLL 0.51
0,
#SCROLL 0.53
0,
#SCROLL 0.57
0,
#SCROLL 0.65
0,
#SCROLL 0.81
0,
#SCROLL 1
0,
0,
0,
0,
0, //70
#MEASURE 6/4
#SCROLL 1
500000000000000000000000000000000000000000000000000000000000000008000000,
300000010000001000001000,
#BARLINEOFF
0, //73
#BARLINEON
#MEASURE 1/4
#SCROLL 0.5
0,
#SCROLL 0.53
0,
#SCROLL 0.57
0,
#SCROLL 0.65
0,
#SCROLL 0.81
0,
#MEASURE 9/4
#SCROLL 1
003000000000030000030000300000000000,
300000000000000000000000000000300000000000000000000000700000000000000000000000000000000000000000000008000000,
#MEASURE 1/4
68, //81
#MEASURE 8/4
0,
#MEASURE 4/4
500008000000300000000000000000000000000000000000,
#MEASURE 13/4
500000000000000000000008000000300000000000000000000100000000100000000000000000000100000000000000000000100000000000000000000100000000000000000000100000000000, //84
#BARLINEOFF
#MEASURE 4/4
1,
#BARLINEON
#MEASURE 1/4
#SCROLL 0.5
0,
#SCROLL 0.51
0,
#SCROLL 0.53
0,
#SCROLL 0.57
0,
#SCROLL 0.65
0,
#SCROLL 0.81
0, //91
#MEASURE 5/4
#SCROLL 1
500000000000000008000000300000000000000300000000000000000000,
#MEASURE 11/4
500000000000000008000000300000000000000000000000300000000000000000000000500000000008000000300000000000000000000000000
#GOGOSTART
300000000000000,
#GOGOEND
#BARLINEOFF
#MEASURE 13/4
0, //94
#BARLINEON
#MEASURE 6/4
#BPMCHANGE 257.5
#SCROLL 0.5
000010010000,
#MEASURE 8/4
100000000000000000100000000000000000000000000000500000000000000000000000000000000000000008000000,
00011020,
100000000000000000000000200000000000000000000000500000000000000000000000000008000000000000000000,
2
#SCROLL 1
0, //99
#END
