//TJADB Project
TITLE:Never say never
TITLEJA:Never say never
SUBTITLE:--Akitaka Toyama feat. Ayaka Fukuhara/THE iDOLM@STER ONE FOR ALL
SUBTITLEJA:「アイドルマスター シンデレラガールズ」より
BPM:156
WAVE:Never say never.ogg
OFFSET:-1.877
DEMOSTART:60.336 //shinuchi:
5920/4500/2430/1390

COURSE:Oni
LEVEL:8
BALLOON:
SCOREINIT:440,1480
SCOREDIFF:113
#START
10011010,
10011011,
10011000,
4433, //4
#GOGOSTART
1010201000102011,
1010201000102011,
1000201020221122,
1000201000102011,
2000201000102022,
1000201220202010,
0010201022112210,
43, //12
#GOGOEND
1020102210201012,
1020102210201000,
1020102210201012,
12212210,
1020102210201012,
1020102210221022,
1020101210201012,
1120201120201000, //20
1020102210201012,
1020102210201000,
1111201202102211,
2020300000102222,
1010201000102022,
1010201022112020,
30340460,
000000000000000008000000000000200200200200100100, //28
1000201010002012,
10211020,
1000201010202012,
1000201010112022,
1010201122102010,
1110201222102010,
2210201122102011,
2211221122112220,
33033033,
0030300000112000, //38
#GOGOSTART
1010221020112010,
2010221000102010,
2210201020221010,
2010221022112000,
1022202010102010,
1022202010001020,
1011201020002010,
2011201022112222, //46
1010221020112010,
2010221000102010,
2210201020221010,
2010221022112000,
1022202010102010,
1122202010001020,
1011201020112210,
2012201220122220, //54
6,
000000000000000000000008000000000000000000000000,
#GOGOEND
1010212010102120,
2020212000102000,
0020121020201210,
2020121012101210,
0011201120112021,
2211221122112222, //62
#GOGOSTART
2000000000002222,
2000000000002222,
2000000000002222,
2000000022222222,
#GOGOEND
10121010,
10121011,
10111012,
2000001022112222, //70
#GOGOSTART
1010221020112010,
2010221000102010,
2210201020221010,
2010221022112000,
1022202010102010,
1122202010001020,
1011201020112210,
2012201220122220,
43343343,
34334433,
40040044,
#GOGOEND
0,
0,
0, //84
#END

COURSE:Hard
LEVEL:5
BALLOON:
SCOREINIT:580,2750
SCOREDIFF:153
#START
10011010,
10011011,
10011000,
4433, //4
#GOGOSTART
6,
000000000000000000000008000000000000000000000000,
11,
10110110,
10110110,
1000002220202050,
000000000000000000000000000000000008000000000000,
43, //12
#GOGOEND
10121012,
10121210,
10121210,
1122,
10121012,
10121210,
10121210,
11221120, //20
10121012,
10121210,
30430343,
04300011,
10110020,
10201122,
30340460,
000000000000000008000000000000000000000000000000, //28
10211020,
10211020,
10211020,
10211020,
10110110,
10110110,
10111010,
10111010,
33033033,
03300000, //38
#GOGOSTART
11221122,
11220211,
22112211,
22110000,
10011000,
10011021,
20212001,
10011000, //46
11221122,
11220211,
22112211,
22110000,
10011010,
10011021,
20212000,
4433, //54
6,
000000000000000000000008000000000000000000000000,
#GOGOEND
11221122,
1010222000000000,
02112211,
22112211,
0111,
11221122, //62
#GOGOSTART
4,
4,
4,
4,
#GOGOEND
10011000,
10011021,
20212001,
10011000, //70
#GOGOSTART
11221122,
11220211,
22112211,
22110000,
10011010,
10011021,
20212000,
4433, //78
6,
000000000000000000000008000000000000000000000000,
40040044,
#GOGOEND
0,
0,
0, //84
#END

COURSE:Normal
LEVEL:4
BALLOON:11,8,9,6
SCOREINIT:780,5520
SCOREDIFF:250
#START
1,
1,
11,
3333, //4
#GOGOSTART
6,
000000000000000000000008000000000000000000000000,
0303,
0303,
0404,
0409,
0000000000090000,
8, //12
#GOGOEND
1011,
0011,
5,
000000000000000000000008000000000000000000000000,
1011,
0111,
5,
000000000000000000000008000000000000000000000000, //20
1011,
0011,
7,
8400,
1120,
1120,
30030030,
0, //28
10011000,
10011000,
10011000,
10011000,
1120,
1120,
1122,
1122,
9009,
8, //38
#GOGOSTART
1111,
10110000,
2222,
20220000,
10011000,
10011000,
10011002,
20022000, //46
1111,
10110000,
2222,
20220000,
10011000,
10011000,
10011000,
4433, //54
6,
000000000000000000000008000000000000000000000000,
#GOGOEND
0101,
0202,
0101,
0202,
0101,
7008, //62
#GOGOSTART
4,
4,
4,
4,
#GOGOEND
10011000,
10011000,
10011002,
20022000, //70
#GOGOSTART
1111,
10110000,
2222,
20220000,
10011000,
10011000,
10011000,
4433, //78
6,
000000000000000000000008000000000000000000000000,
40040044,
#GOGOEND
0,
0,
0, //84
#END

COURSE:Easy
LEVEL:3
BALLOON:8,6,7,4,4,5,4
SCOREINIT:650,7850
SCOREDIFF:203
#START
1,
1,
11,
3333, //4
#GOGOSTART
6,
000000000000000000000008000000000000000000000000,
0303,
0303,
0404,
0409,
0000000000090000,
8, //12
#GOGOEND
1011,
0,
5,
000000000000000000000008000000000000000000000000,
1011,
0,
5,
000000000000000000000008000000000000000000000000, //20
1011,
0,
7,
8300,
11,
22,
30030030,
0, //28
1001,
1001,
1001,
1001,
0101,
0101,
0202,
0202,
9009,
8, //38
#GOGOSTART
1110,
1100,
1110,
70000800,
12,
12,
21,
21, //46
1110,
1100,
1110,
70000800,
12,
12,
21,
3333, //54
6,
000000000000000000000008000000000000000000000000,
#GOGOEND
0101,
0202,
0101,
0202,
0101,
7008, //62
#GOGOSTART
4,
4,
4,
4,
#GOGOEND
12,
12,
21,
21, //70
#GOGOSTART
1110,
1100,
1110,
70000800,
12,
12,
21,
3333, //78
6,
000000000000000000000008000000000000000000000000,
40040044,
#GOGOEND
0,
0,
0, //84
#END
