//TJADB Project
TITLE:Sotsu Omeshiki 2-ban
TITLEJA:そつおめしき2ばん
SUBTITLE:--Kawagen Collagen feat. unmo
SUBTITLEJA:feat.unmo
BPM:200
WAVE:Sotsu Omeshiki 2-ban.ogg
OFFSET:-1.408
DEMOSTART:69.693 //shinuchi:
5410/3150/2120/1240

COURSE:Oni
LEVEL:10
BALLOON:
SCOREINIT:450,1270
SCOREDIFF:115
#START
#GOGOSTART
1000201212202020,
0020001212202220,
1000201212201020,
0020001210222000,
1020101212201020,
1220102212101220,
1020101212201020,
202020200200200000101010100100100000202020200200,
200000101010100100100000100000000000000000000000, //9
#GOGOEND
1010202211102010,
0010202211202000,
1010202212202010,
0011202211202000,
1211202211102010,
0010202211202000,
1111202011202011,
2210202210112000, //17
1010202211102010,
0010202211202000,
1010202212202010,
0011202211202000,
1212202211102010,
0010202211202000,
1211202011202011,
2210201022102000, //25
1222102011221020,
1011201020112000,
1022122010221120,
1011201020112000,
1222102011221020,
1011201020112000,
1022122010112011,
1011201020002000, //33
1222102011221020,
1211201020112000,
1022122010221120,
1211201020112000,
1222102011221020,
1211201020112000,
1022122010112011,
2210201022221020, //41
3,
2,
2,
20220220,
2,
2,
1000200020002022,
1020222210202222, //49
10202022,
1000122210201222,
1000112210201122,
1000111210201112,
1000112210201122,
1000122210201222,
21401401,
2222203000200000, //57
#GOGOSTART
1012221010221120,
1011212010221110,
1022122010221210,
1212201012221020,
1000302220401110,
202020200200200000101010100100100000200000000000,
1222102212201210,
1010201022221220, //65
2012222210222210,
2012222210222210,
2012222210122222,
100000100200100000202020100200100200200200100200,
1000112220112220,
222200200111100100400000,
1022122012221010,
1012221012221222, //73
200000222200200200200200,
3022203000302220,
1011201120201040,
0040001111202000,
2220300010300020,
3000200010102012,
1011200010222030,
0020300020300022, //81
#GOGOEND
2220100020100020,
10110020,
0,
0, //85
#END

COURSE:Hard
LEVEL:7
BALLOON:
SCOREINIT:540,2220
SCOREDIFF:153
#START
#GOGOSTART
10211112,
02011020,
10211112,
0020002020111000,
10211020,
10201220,
10201022,
2220202020201110,
11114000, //9
#GOGOEND
10201121,
01201120,
10201121,
01202210,
10201121,
01201120,
10201121,
0010100022202000, //17
10201121,
01201120,
10201121,
01202210,
10201121,
01201120,
10201121,
0010100022202000, //25
12101210,
1110001020002000,
11201120,
1110001020002000,
12101210,
1110001020002000,
1010200010100011,
11102020, //33
12101210,
1110001020002000,
11201120,
1110001020002000,
12101210,
1110001020002000,
1010200010102011,
1010100022202000, //41
3,
2,
2,
20220220,
2,
2,
10110101,
01012020, //49
1000222020002220,
10121012,
1000102010001110,
1000111010001110,
10121012,
1000102010102220,
01401401,
500000000008000000400000000000200000000000000000, //57
#GOGOSTART
22,
22,
2222,
2020202022202220,
10401401,
30230240,
12101120,
1020100020222000, //65
21202122,
21202120,
22222222,
2220222022202222,
20400400,
30030340,
12101120,
200000200000200000000000500000000000000000000008, //73
00301111,
1022201000102011,
10401101,
000000100000000000500000000000000000000000000008,
00301102,
1000200010102011,
1000400010222010,
02102102, //81
#GOGOEND
00200200,
10010020,
0,
0, //85
#END

COURSE:Normal
LEVEL:6
BALLOON:10,5,5
SCOREINIT:630,3480
SCOREDIFF:185
#START
#SCROLL 0.85
#GOGOSTART
10111002,
02000000,
10111002,
02000000,
10101110,
11101110,
11111010,
7,
08, //9
#GOGOEND
10101001,
01102000,
10101001,
01102000,
10101001,
01102000,
10101001,
01102020, //17
11101001,
01102000,
11101001,
01102000,
11101001,
01102000,
11101001,
01102020, //25
1112,
11010020,
1112,
11010020,
1112,
11010020,
10101101,
01102020, //33
1112,
11010020,
1112,
11010020,
1112,
11010020,
10101101,
01102020, //41
3,
2,
2,
20020020,
2,
2,
22,
2022, //49
2,
1111,
10101011,
1111,
1111,
10101011,
10400400,
30030000, //57
#GOGOSTART
22,
22,
22202220,
22222020,
20300300,
7084,
10102220,
22201000, //65
10101110,
10101110,
11101110,
22222222,
20300300,
7084,
10102220,
22201010, //73
0330,
30030000,
00303002,
000000200000000000500000000000000000000000000008,
00303000,
30030000,
00303003,
00200200, //81
#GOGOEND
00100100,
10010020,
0,
0, //85
#END

COURSE:Easy
LEVEL:4
BALLOON:6,4
SCOREINIT:620,6250
SCOREDIFF:203
#START
#SCROLL 0.85
#GOGOSTART
10000001,
01000000,
10000001,
01000000,
11,
1110,
11,
5,
000000000000000000000008000000000000000000000000, //9
#GOGOEND
10002001,
0110,
10002001,
0110,
10002001,
0110,
10002001,
0220, //17
10002001,
0110,
10002001,
0110,
10002001,
0110,
10002001,
0220, //25
1011,
10020000,
1011,
10020000,
1011,
10020000,
10001002,
0220, //33
1011,
10020000,
1011,
10020000,
1011,
10020000,
10001002,
0220, //41
3,
2,
2,
22,
7,
8,
2,
22, //49
2,
11,
11,
1110,
11,
1,
00300300,
30030000, //57
#GOGOSTART
22,
22,
2220,
2222,
00300300,
3,
12,
1110, //65
5,
0,
0,
000000000000000000000000000000000008000000000000,
00300300,
30030000,
12,
1111, //73
0330,
600000000000000000000000000000000008000000000000,
00303007,
0008,
0330,
600000000000000000000000000000000008000000000000,
00303003,
0, //81
#GOGOEND
00100100,
10010020,
0,
0, //85
#END
