//TJADB Project
TITLE:Calculator
TITLEJA:Calculator
SUBTITLE:--M-O-T-U
SUBTITLEJA:M-O-T-U
BPM:166
WAVE:Calculator.ogg
OFFSET:-1.761
DEMOSTART:13.327

COURSE:Oni
LEVEL:10
SCOREINIT:450
SCOREDIFF:100
#START
0220220202202202,
0220220202202202,
1220120212201202,
1220120212201202,
1120120211201202,
1120120211201202,
2220222022202220,
222222000000,
1022111210221202,
1120120211221220,
1022120211221202,
1022102211211012,
1220112212201220,
1121122211211022,
202020222020222020202020,
101010222020111010201110,
1002100210201002,
1002102120201002,
1002100210201002,
1002102030403040,
1022102012201021,
1022102120201021,
1022102012201020,
44343434,
#SCROLL 0.5
1010001020111000,
1020101000102012,
100000000000100000200000
#SCROLL 2
200020002000100000000000,
#SCROLL 0.5
1010001020111000,
1020101000102012,
100000000000100000200000
#SCROLL 2
100010001000200020002000,
#SCROLL 0.5
1010201020121000,
1020101022102010,
10001020
#SCROLL 2
22111000,
#SCROLL 0.5
2020201020121020,
1020101020122010,
10001020
#SCROLL 2
12221000,
#GOGOSTART
#SCROLL 1
1020122211221022,
1020122212001200,
1122102211221022,
1121202212221002,
1020122211221022,
1020122212001200,
102020102220102020102220,
102022221110102020100000,
#GOGOEND
1101201021101201,
0211012011110000,
1101201021101201,
0122022022220000,
1101201021101101,
0211011011122222,
1101101021101202,
0211012022220000,
,
,
2222,
2200220022002200,
1200120012001200,
1120112011201120,
34343434,
4444,
#BPMCHANGE 179
1002100210021000,
#BPMCHANGE 188
1002100010001000,
#BPMCHANGE 200
1002100210021000,
#BPMCHANGE 214.5
1002100010001000,
#BPMCHANGE 231
1002100210021000,
#BPMCHANGE 266.5
1002100010001000,
#BPMCHANGE 280
1002100210021000,
#BPMCHANGE 300
1002100010001000,
#GOGOSTART
1010101010101110,
1010101010101110,
1010101010101111,
11112222,
3333,
3333,
3333,
3344,
1010101010101110,
1010101010101110,
1010111010101111,
1010101020202220,
12121212,
12121212,
1111111022222220,
1122112211221120,
#GOGOEND
#BPMCHANGE 150
#SCROLL 5
3,
#END

COURSE:Hard
LEVEL:8
BALLOON:3
SCOREINIT:400
SCOREDIFF:110
#START
,
,
1111,
1111,
3333,
3333,
2222,
222222000000,
1011101110111011,
1011101110222000,
1011101110111011,
1011101111101000,
1011101110111011,
1011101110222000,
222222222200,
111222111222,
10101210,
1000102220201000,
10101210,
10103434,
1000100210201000,
1002102220201000,
1000100210201000,
44343434,
#SCROLL 0.5
11010110,
10110101,
100000000000100000000000
#SCROLL 2
500000000008000000000000,
#SCROLL 0.5
11010110,
10110101,
1010
#SCROLL 2
7080,
#SCROLL 0.5
10101110,
10112220,
100000000000100000000000
#SCROLL 2
500000000008000000000000,
#SCROLL 0.5
22222211,
10101110,
1010
#SCROLL 2
4430,
#GOGOSTART
#SCROLL 1
1011101110111011,
1011100012001200,
1011101110111011,
1011100022222000,
1011101110111011,
1011100012001200,
122122122100,
1111100120000000,
#GOGOEND
1101101001101101,
0011011010020000,
1101101001101101,
0022022020020000,
1101101001101101,
0011011010020000,
1101101001101101,
0022022020020000,
,
,
2222,
1111,
1100110011001100,
1110111011101110,
3333,
4444,
#BPMCHANGE 179
12101210,
#BPMCHANGE 188
12102020,
#BPMCHANGE 200
12101210,
#BPMCHANGE 214.5
12102020,
#BPMCHANGE 231
12101210,
#BPMCHANGE 266.5
12102020,
#BPMCHANGE 280
12101210,
#BPMCHANGE 300
12102020,
#GOGOSTART
11111111,
11111111,
11111111,
11112222,
3333,
3333,
3333,
3344,
11111111,
11111111,
11111111,
11112222,
11112222,
11221122,
12121212,
12121212,
#GOGOEND
#BPMCHANGE 150
#SCROLL 5
3,
#END

COURSE:Normal
LEVEL:7
BALLOON:6,2,2
SCOREINIT:500
SCOREDIFF:140
#START
,
,
1111,
1111,
3333,
3333,
2222,
78,
10101210,
10101220,
10101210,
10101110,
10101210,
10101220,
2222,
111100300000,
10101210,
10122210,
10101210,
10103434,
10101210,
10122210,
10101210,
44343000,
#SCROLL 0.5
11000110,
00110001,
100000000000000000000000
#SCROLL 2
500000000008000000000000,
#SCROLL 0.5
11000110,
00110001,
1000
#SCROLL 2
7080,
#SCROLL 0.5
1121,
1222,
100000000000100000000000
#SCROLL 2
500000000008000000000000,
#SCROLL 0.5
2221,
1122,
1010
#SCROLL 2
7080,
#GOGOSTART
#SCROLL 1
12101210,
12103030,
12101210,
12102020,
12101210,
12103030,
111100222200,
111100200000,
#GOGOEND
1100000001100000,
0011000000020000,
1100000001100000,
0022000000020000,
1100000001100000,
0011000000020000,
1100000001100000,
0011000000020000,
,
,
2222,
1111,
1111,
1111,
3333,
4444,
#BPMCHANGE 179
1111,
#BPMCHANGE 188
1122,
#BPMCHANGE 200
1111,
#BPMCHANGE 214.5
1122,
#BPMCHANGE 231
1111,
#BPMCHANGE 266.5
1122,
#BPMCHANGE 280
1111,
#BPMCHANGE 300
1122,
#GOGOSTART
1111,
1111,
1111,
1122,
3333,
3333,
3333,
3344,
1111,
1111,
1111,
1122,
1122,
1122,
1212,
1212,
#GOGOEND
#SCROLL 5
#BPMCHANGE 150
3,
#END

COURSE:Easy
LEVEL:4
BALLOON:5,5,2,2,15,15
SCOREINIT:900
SCOREDIFF:160
#START
,
,
,
,
5,
000000000000000000000000000000000000000000000008,
,
78,
11,
1011,
11,
12,
11,
1011,
500000000000000000000000000000000008000000000000,
33,
1110,
12,
1110,
78,
1110,
12,
1110,
43,
#SCROLL 0.5
5,
,
850000000008000000000000000000000000000000000000,
5,
,
850000000008000000000000000000000000000000000000,
1101,
1,
11
#SCROLL 2
78,
#SCROLL 0.5
2201,
1,
11
#SCROLL 2
78,
#GOGOSTART
#SCROLL 1
1111,
1133,
1111,
12,
1111,
1133,
5,
850000000008000000000000200000000000000000000000,
#GOGOEND
1100000001100000,
0011000000020000,
1100000001100000,
0022000000020000,
7,
0000000080020000,
7,
0000000080020000,
,
,
,
,
,
,
33,
4440,
#BPMCHANGE 179
11,
#BPMCHANGE 188
1011,
#BPMCHANGE 200
11,
#BPMCHANGE 214.5
1011,
#BPMCHANGE 231
11,
#BPMCHANGE 266.5
1011,
#BPMCHANGE 280
11,
#BPMCHANGE 300
1011,
#GOGOSTART
5,
,
,
000000000000000000000000000000000000000008000000,
500000000000000000000000000000000000000008000000,
600000000000000000000000000000000000000008000000,
500000000000000000000000000000000000000008000000,
600000000000000000000000000000000000000008000000,
5,
,
,
000000000000000000000000000000000000000008000000,
600000000000000008000000600000000000000008000000,
600000000000000008000000600000000000000008000000,
6,
000000000000000000000000000000000000000008000000,
#GOGOEND
#SCROLL 5
#BPMCHANGE 150
3,
#END
