//TJADB Project
TITLE:Cirno’s Perfect Math Class -⑨th Anniversary Version-
TITLEJA:チルノのパーフェクトさんすう教室 ⑨周年バージョン
SUBTITLE:--IOSYS & Happy ⑨Hth Anniversary Friends/Touhou Project
BPM:350
WAVE:Cirnos Perfect Math Class -⑨th Anniversary Version-.ogg
OFFSET:-1.330
DEMOSTART:23.280

COURSE:Edit
LEVEL:10
BALLOON:5,909,4,4,4,4
SCOREINIT:450
SCOREDIFF:75
#START
#MEASURE 8/4
#SCROLL 0.5
1010202000222010,
1010202000222010,
1022201010222010,
1022201000404000,
1010202000222010,
1010202000221111,
1022201010222010,
22220111,
30022211,
1022202220101010,
10022211,
1022122122221111,
13,
33,
11111000400000001111100040000000,
1022202020304000,
#GOGOSTART
1120201102112211,
1222101202112010,
1011201102112211,
1211201221221212,
1120201102112211,
1222101202112010,
1011201102112211,
20202020222020201000100010001000,
1120201102112211,
1222101202112210,
1011201102112211,
1211201221221212,
1120201102112211,
1222101202112210,
10100020200010100020200022221000,
101010220000
#SCROLL 1.25
4000,
#GOGOEND
#SCROLL 0.5
1011202010221020,
1011202010221000,
2011201022112210,
2011201211221000,
1111202010221020,
1022122211212010,
00340034,
10002010002010001020111120000000,
1022102010004000,
1120102210222000,
2011201022112010,
14143708,
200200100100200200100100
#GOGOSTART
202000100000202000100000,
#GOGOEND
2212112110102000,
33,
30002020100020201022202022202020,
1,
1,
1,
1000000000221111,
12020202,
2222122220202020,
#SCROLL 1
3000
#SCROLL 0.5
111120000000
#SCROLL 1.13
3000
#SCROLL 0.5
111120000000,
#GOGOSTART
#SCROLL 1.25
1
#SCROLL 1
1
#SCROLL 1.5
1
#SCROLL 0.88
1
#SCROLL 0.63
1
#SCROLL 1.38
1
#SCROLL 0.75
1
#SCROLL 1.13
1
#GOGOEND
#SCROLL 0.5
10000000,
#GOGOSTART
1021221210211212,
1021201210121112,
1021221212212212,
100000200100100200100200101010200000400000000000,
3001201222102010,
0012201020112212,
1022102011211020,
3000400040112221,
1021221210211212,
1021201210112121,
1021221212212212,
100000200100100200100200202020100000400000000000,
3001201222102010,
2212201022112010,
20001111200010002000222210002000,
#GOGOEND
#MEASURE 1/4
#BPMCHANGE 43.75
#SCROLL 4
7008,
#GOGOSTART
#MEASURE 8/4
#BPMCHANGE 350
#SCROLL 0.5
1120201102112211,
1222101202112010,
1011201102112210,
7008700870087008,
1120201102112211,
1222101202112010,
1011201102112210,
500000000008000000000000100100100100100000000000500000000008000000000000200200200200200000000000,
1121201102112211,
1222101202112210,
1211201102112211,
1211201221221212,
1121201102112211,
1222101202112210,
10100020200010100020200022221000,
101010220000
#GOGOEND
#BPMCHANGE 1.97
#SCROLL 222.46
4000,
#END

COURSE:Oni
LEVEL:9
BALLOON:9
SCOREINIT:410
SCOREDIFF:100
#START
#MEASURE 8/4
#SCROLL 0.5
11220221,
11220221,
1022201010222010,
12210440,
11220221,
1010202000222010,
1022201010222010,
22220000,
3,
02222000,
,
0022122210000000,
33,
33,
111100400000111100400000,
1022202020304000,
#GOGOSTART
1110201101102211,
1110201102202210,
1110201101102211,
1110201102221020,
1110201101102211,
1110201102202210,
1110201101102210,
2222222210101010,
1110201101102211,
1120201102102210,
1110201101102211,
1120201202221020,
1110201101102211,
1120201102102210,
2202201101102020,
1010101100004000,
#GOGOEND
1022202010201020,
1022202010221000,
1022202011201020,
100000200200100000200000500000000000000008000000,
1022202010201020,
1022202010221020,
00340034,
1021201212104000,
1022102010004000,
1022102010222000,
1022102010221020,
300000000000400000000000600000000000000008000000,
22202220
#GOGOSTART
40304030,
#GOGOEND
1222112210102000,
33,
3022102212221222,
1,
1,
1,
1000000000221111,
12020202,
2222222220202020,
111100400000111100400000,
#GOGOSTART
7
#GOGOEND
8,
#GOGOSTART
1011201110112022,
1011201210112211,
1011201110112022,
1011121210004000,
3000001120102010,
0012201020112210,
1022102010211020,
3000400040102011,
1011201110112022,
1011201210112211,
1011201110112022,
1011121210004000,
3000001120102010,
2012201022112020,
11421142,
#GOGOEND
#MEASURE 1/4
#BPMCHANGE 43.75
#SCROLL 4
,
#GOGOSTART
#MEASURE 8/4
#BPMCHANGE 350
#SCROLL 0.5
1110201101102211,
1110201102202210,
1110201101102210,
500008000000500008000000500008000000500008000000,
1110201101102211,
1110201102202210,
1110201101102210,
500008000000101010100000500008000000202020200000,
1110201101102211,
1120201102102210,
1110201101102211,
1120201202221020,
1110201101102211,
1120201102102210,
2202201101102020,
101010110000
#GOGOEND
#BPMCHANGE 1.97
#SCROLL 88.99
4000,
#END

COURSE:Hard
LEVEL:5
BALLOON:9
SCOREINIT:570
SCOREDIFF:155
#START
#MEASURE 8/4
#SCROLL 0.5
10220220,
10220220,
10221022,
10110440,
10220220,
10220220,
10221022,
11110000,
3,
,
,
,
33,
33,
3434,
10101440,
#GOGOSTART
10110120,
10110120,
10110120,
10110221,
10110120,
10110120,
10110120,
500000000000000000000000000000000000000008000000,
10210120,
10210120,
10210120,
10210221,
10210120,
10210120,
5,
000000000000000000000008000000000000400000000000,
#GOGOEND
10111020,
10111020,
10112210,
2220,
10221020,
11221000,
20112011,
500000000000000000000000000000000008000000000000,
12121040,
12121440,
12121212,
300000000000300000000000600000000000000008000000,
2020
#GOGOSTART
4343,
#GOGOEND
7008,
33,
600000000000000000000000000000000000000008000000,
1,
1,
1,
1,
11,
1111,
3434,
#GOGOSTART
600000000000000000000008
#GOGOEND
000000000000000000000000,
#GOGOSTART
10201122,
10202211,
10201122,
500000000000000000000008000000000000300000000000,
30011111,
02220111,
10121012,
3440,
10201122,
10202211,
10201122,
500000000000000000000008000000000000300000000000,
30011110,
22112210,
11223344,
#GOGOEND
#MEASURE 1/4
#BPMCHANGE 43.75
#SCROLL 4
,
#GOGOSTART
#MEASURE 8/4
#BPMCHANGE 350
#SCROLL 0.5
10110120,
10110120,
10110120,
10110221,
10110120,
10110120,
10110120,
500000000000000000000000000000000000000008000000,
10210120,
10210120,
10210120,
10210221,
10210120,
10210120,
5,
000000000000000000000008000000000000
#GOGOEND
#BPMCHANGE 1.97
#SCROLL 88.99
400000000000,
#END

COURSE:Normal
LEVEL:4
BALLOON:6
SCOREINIT:630
SCOREDIFF:190
#START
#MEASURE 8/4
#SCROLL 0.5
1100,
1100,
11,
10110000,
1100,
1100,
22,
20220000,
3,
,
,
,
33,
33,
44,
1110,
#GOGOSTART
10110100,
10110100,
10110100,
,
10110100,
10110100,
10110100,
500000000000000000000008000000000000000000000000,
10110200,
10110200,
10110200,
,
10110200,
10110200,
5,
000000000000000000000008000000000000000000000000,
#GOGOEND
1110,
1110,
10101110,
1120,
1110,
1110,
2222,
500000000000000000000000000000000008000000000000,
10111040,
10111040,
10111010,
3330,
43
#GOGOSTART
43,
#GOGOEND
7008,
33,
600000000000000000000000000000000008000000000000,
1,
1,
1,
1,
11,
1111,
33,
#GOGOSTART
600000000000000000000008
#GOGOEND
000000000000000000000000,
#GOGOSTART
10101110,
1220,
10101110,
500000000000000000000008000000000000300000000000,
3011,
0110,
1122,
3330,
10101110,
1220,
10101110,
500000000000000000000008000000000000300000000000,
3011,
11102020,
3344,
#GOGOEND
#MEASURE 1/4
#BPMCHANGE 43.75
#SCROLL 4
,
#GOGOSTART
#MEASURE 8/4
#BPMCHANGE 350
#SCROLL 0.5
10110200,
10110200,
10110200,
,
10110200,
10110200,
10110200,
500000000000000000000008000000000000000000000000,
10220200,
10220200,
10220200,
,
10220200,
10220200,
5,
000000000000000000000008000000000000
#GOGOEND
#BPMCHANGE 1.97
#SCROLL 88.99
400000000000,
#END

COURSE:Easy
LEVEL:3
BALLOON:11
SCOREINIT:670
SCOREDIFF:300
#START
#MEASURE 8/4
#SCROLL 0.5
1,
1,
11,
1,
1,
1,
22,
2,
3,
,
,
,
33,
33,
44,
3,
#GOGOSTART
10010000,
10010000,
10010000,
,
10010000,
10010000,
10010000,
500000000000000000000008000000000000000000000000,
10010000,
10010000,
10010000,
,
10010000,
10010000,
5,
000000000000000008000000000000000000000000000000,
#GOGOEND
11,
1110,
11,
500000000000000000000000000008000000000000000000,
11,
1110,
22,
500000000000000000000000000008000000000000000000,
11,
1110,
22,
3330,
1
#GOGOSTART
1,
#GOGOEND
2,
9,
,
8,
,
,
,
1,
1,
33,
#GOGOSTART
600000000000000000000008
#GOGOEND
000000000000000000000000,
#GOGOSTART
1011,
12,
1011,
1003,
31,
000000500000000000000000000008000000000000000000,
11,
3330,
1011,
12,
1011,
1003,
31,
1110,
44,
#GOGOEND
#MEASURE 1/4
#BPMCHANGE 43.75
#SCROLL 4
,
#GOGOSTART
#MEASURE 8/4
#BPMCHANGE 350
#SCROLL 0.5
10010000,
10010000,
10010000,
,
10010000,
10010000,
10010000,
500000000000000000000008000000000000000000000000,
20020000,
20020000,
20020000,
,
20020000,
20020000,
5,
000000000000000008000000000000000000
#GOGOEND
#BPMCHANGE 1.97
#SCROLL 88.99
400000000000,
#END
