//TJADB Project
TITLE:HARDCORE no Kokoroe
TITLEJA:HARDCOREノ心得
SUBTITLE:--DJ Myosuke
SUBTITLEJA:DJ Myosuke
BPM:190
WAVE:HARDCORE no Kokoroe.ogg
OFFSET:-1.450
DEMOSTART:1.450 //Shinuchi:
3820/2380/1590/1030

COURSE:Oni
LEVEL:10
BALLOON:2,2,13,15,7,6
SCOREINIT:370,1120
SCOREDIFF:88
#START
#GOGOSTART
1000102210201011,
1010102210201111,
1020102010221220,
1212121211112000,
#GOGOEND
1010102212201211,
1010102212107080,
#GOGOSTART
4011111120201111,
2020111121112000,
#GOGOEND
1020102212201111,
1010102212207080,
#GOGOSTART
4011202011201111,
200000100100200000100100201010100000400000000000, //12
#GOGOEND
#BPMCHANGE 95
#SCROLL 1.5
100100000100100200000200100200000100202020202020,
10100010102000201020001020112000,
#BPMCHANGE 190
#SCROLL 0.75
101010200020102010111020,
101020101110102010202020,
101020101020111020111020,
#MEASURE 2/4
#BPMCHANGE 95
#SCROLL 4
7008, //18
#MEASURE 4/4
#BPMCHANGE 190
#SCROLL 1
#GOGOSTART
1210120210221222,
1020122210104000,
1220120210221121,
1010122210104011,
1210120210221211,
1010122210104000,
1210120210221121,
101111101400, //26
#GOGOEND
#MEASURE 3/4
#BPMCHANGE 95
#SCROLL 2
70
#BPMCHANGE 190
#SCROLL 1
0008,
#MEASURE 8/4
#BPMCHANGE 380
#GOGOSTART
600000000000000000000000000008000000000000000000
#SCROLL 0.5
100000100000100000100000200000000000000000000000, //28
#MEASURE 4/4
#BPMCHANGE 190
#SCROLL 1
1220120210221111,
1012111110104000,
3010121210104000,
3012101212104040,
#MEASURE 8/4
#BPMCHANGE 380
#SCROLL 0.5
1122112211221122,
10201020102010201010101011111111,
#GOGOEND
#MEASURE 9/8
#BPMCHANGE 30.536
#SCROLL 6.22
1, //35
#MEASURE 8/4
#BPMCHANGE 380
#SCROLL 0.5
#GOGOSTART
4011112111211111,
#MEASURE 5/4
200000100000100000100000200000100000100000100000
#GOGOEND
#BPMCHANGE 95
#SCROLL 3
500000008000,
#MEASURE 8/4
#BPMCHANGE 380
#SCROLL 0.5
#GOGOSTART
2112112111211111,
#MEASURE 5/4
2010101020102010
#GOGOEND
#BPMCHANGE 95
#SCROLL 1
7008, //39(+3)
#MEASURE 8/4
#BPMCHANGE 380
#SCROLL 0.5
#GOGOSTART
2121112111211111,
#MEASURE 5/4
200000100000100000100000200000100000100000100000
#GOGOEND
#BPMCHANGE 95
#SCROLL 4
500000008000,
#MEASURE 8/4
#BPMCHANGE 380
#SCROLL 0.5
#GOGOSTART
2112112112112121,
#GOGOEND
#MEASURE 1/4
#BPMCHANGE 47.5
#SCROLL 8
0, //43
#MEASURE 8/4
#BPMCHANGE 190
#SCROLL 1
400202222202100202222222,
100020200020102020200020
#GOGOSTART
302000102220102020111020,
#GOGOEND
#MEASURE 4/4
102102111402,
101020102020111010400010,
201011201010211010211020,
#MEASURE 2/4
#BPMCHANGE 95
#SCROLL 4
600000000008
#SCROLL 2
000000400000, //49
#MEASURE 4/4
#BPMCHANGE 190
#SCROLL 1
#GOGOSTART
121102120111,
102000102020111010402010,
121102120111,
102011102010102010402020,
121102120111,
102000102010111010402010,
102010100010102010111010,
102022102020300040004000, //57(+3)
#GOGOEND
#MEASURE 2/4
#BPMCHANGE 95
#SCROLL 2
100020200020102000222020,
102000202000111010102020,
100020200020102000200020,
100200101000, //61
#MEASURE 4/4
#BPMCHANGE 190
#SCROLL 1
30202212,
3030200020221020,
1010121010121020,
#MEASURE 8/4
#BPMCHANGE 380
#SCROLL 0.5
100000100000100000100000100000100000100000100000100000100000500000000000000000000008000000000000,
#MEASURE 4/4
#BPMCHANGE 190
#SCROLL 1
#GOGOSTART
3020111202101122,
100000200100200000100100200100100000400000202020,
10002000101010200020100011102010,
1012112012104011, //69
100000200000101010200000000200100000100200100100,
100000200100200000100100200100100000400000202020,
100000000000200000000000100010001000200000000000000000200000100000000000100100100000200000100000,
#MEASURE 6/4
100000100200100100100100
#BPMCHANGE 380
#SCROLL 0.5
500000000000000000000000000000000008000000000000,
#MEASURE 4/4
#BPMCHANGE 190
#SCROLL 1
#GOGOSTART
3020111202111222,
#MEASURE 2/4
11111030, //75
#GOGOEND
#BARLINEOFF
#MEASURE 1/64
#BPMCHANGE 23.75
#SCROLL 8
4,
#MEASURE 3/64
4, //77
#BARLINEON
#MEASURE 4/4
#BPMCHANGE 190
#SCROLL 1
#GOGOSTART
300000200000101010200000000200100100100200200200,
#MEASURE 3/4
12111030
#GOGOEND
#BPMCHANGE 95
7008, //79
#MEASURE 4/4
#BPMCHANGE 190
#GOGOSTART
4012012012012040,
101010200000100200000300000400000100200000300000,
400000100100200000100100200100101010200100101010,
#MEASURE 8/4
#BPMCHANGE 380
#SCROLL 0.5
200000100000200000100000200010001000200010001000200000200000200000200000100100100100100100100100,
#GOGOEND
#MEASURE 4/4
#BPMCHANGE 190
#SCROLL 1
1,
0,
#BARLINEOFF
0,
0, //87
#END

COURSE:Hard
LEVEL:8
BALLOON:2,2,4,9,12,3,3,3,4,3
SCOREINIT:440,1880
SCOREDIFF:103
#START
#GOGOSTART
1000100010001011,
1010100010001011,
10101212,
1010101011104000,
#GOGOEND
1010100010001011,
11103378,
#GOGOSTART
2011101011101000,
2020111010004000,
#GOGOEND
1020100010001011,
11103078,
#GOGOSTART
2011101010111000,
2020111070008000, //12
#GOGOEND
#BPMCHANGE 95
#SCROLL 1.5
1102200010022000,
1102200010022040,
#BPMCHANGE 190
#SCROLL 0.75
100200102200,
100101102200,
102102102102,
#MEASURE 2/4
#BPMCHANGE 95
#SCROLL 4
7008, //18
#MEASURE 4/4
#BPMCHANGE 190
#SCROLL 1
#GOGOSTART
1010100010111020,
12101140,
1020100010111020,
11101140,
1010100010111020,
11101140,
1010100010111020,
101111101400, //26
#GOGOEND
#MEASURE 3/4
#BPMCHANGE 95
#SCROLL 2
70
#BPMCHANGE 190
#SCROLL 1
0008,
#MEASURE 8/4
#BPMCHANGE 380
#GOGOSTART
600000000000000000000008000000000000000000000000
#SCROLL 0.5
100000100000100000000000400000000000000000000000, //28
#MEASURE 4/4
#BPMCHANGE 190
#SCROLL 1
1020100010111020,
1010111010104000,
1010101110104000,
1010101110104040,
#MEASURE 8/4
#BPMCHANGE 380
#SCROLL 0.5
12121212,
1010101011101111, //34
#GOGOEND
#MEASURE 9/8
#BPMCHANGE 30.536
#SCROLL 6.22
1,
#MEASURE 8/4
#BPMCHANGE 380
#SCROLL 0.5
#GOGOSTART
2011101011101000,
#MEASURE 5/4
20111010
#GOGOEND
#BPMCHANGE 95
#SCROLL 3
78,
#MEASURE 8/4
#BPMCHANGE 380
#SCROLL 0.5
#GOGOSTART
2011101110101000,
#MEASURE 5/4
20111010
#GOGOEND
#BPMCHANGE 95
#SCROLL 1.33
78, //39
#MEASURE 8/4
#BPMCHANGE 380
#SCROLL 0.5
#GOGOSTART
2010111011101000,
#MEASURE 5/4
20111010
#GOGOEND
#BPMCHANGE 95
#SCROLL 4
78,
#MEASURE 8/4
#BPMCHANGE 380
#SCROLL 0.5
#GOGOSTART
2011101011101110,
#GOGOEND
#MEASURE 1/4
#BPMCHANGE 47.5
#SCROLL 8
0, //43
#MEASURE 8/4
#BPMCHANGE 190
#SCROLL 1
400200202200100200202202,
100200102202
#GOGOSTART
300111100400,
#GOGOEND
#MEASURE 4/4
101101101200,
111101101200,
201201201202,
#MEASURE 2/4
#BPMCHANGE 95
#SCROLL 4
600000000008
#SCROLL 2
000000400000, //49
#MEASURE 4/4
#BPMCHANGE 190
#SCROLL 1
#GOGOSTART
301101100201,
100100101200,
101101100201,
102102102400,
301101100201,
100100101200,
101101100201,
101100304040, //57
#GOGOEND
#MEASURE 2/4
#BPMCHANGE 95
#SCROLL 2
100202100202,
100200111100,
100200100202,
100200101000,
#MEASURE 4/4
#BPMCHANGE 190
#SCROLL 1
3222,
33202020,
11111111,
#MEASURE 8/4
#BPMCHANGE 380
#SCROLL 0.5
300000000000300000000000300000000000300000000000300000000000700000000000000000000008000000000000, //65
#MEASURE 4/4
#BPMCHANGE 190
#SCROLL 1
#GOGOSTART
3000202000111020,
12110140,
3000202000111020,
1020111000104000,
3000404000111020,
12110140,
3000404000111020,
#MEASURE 6/4
100000200000100100100000
#BPMCHANGE 380
#SCROLL 0.5
500000000000000000000000000000000008000000000000, //73
#MEASURE 4/4
#BPMCHANGE 190
#SCROLL 1
#GOGOSTART
3000202000101110,
#MEASURE 2/4
10111010,
#GOGOEND
#BARLINEOFF
#MEASURE 1/64
#BPMCHANGE 23.75
#SCROLL 8
4,
#MEASURE 3/64
4, //77
#BARLINEON
#MEASURE 4/4
#BPMCHANGE 190
#SCROLL 1
#GOGOSTART
3000404000101110,
#MEASURE 3/4
10111010
#GOGOEND
#BPMCHANGE 95
#SCROLL 1.33
7080,
#MEASURE 4/4
#BPMCHANGE 190
#SCROLL 1
#GOGOSTART
3003004004003030,
0040040001022030,
10101212, //82
#MEASURE 8/4
#BPMCHANGE 380
#SCROLL 0.5
1010101011101111,
#GOGOEND
#MEASURE 4/4
#BPMCHANGE 190
#SCROLL 1
1,
0,
#BARLINEOFF
0,
0, //87
#END

COURSE:Normal
LEVEL:7
BALLOON:5,6,15,7,2
SCOREINIT:520,2850
SCOREDIFF:120
#START
#GOGOSTART
10101011,
10101011,
10101110,
11111040,
#GOGOEND
11101011,
11103300,
#GOGOSTART
20112010,
20112040,
#GOGOEND
11101011,
11103000,
#GOGOSTART
20220210,
2234, //12
#GOGOEND
#BPMCHANGE 95
#SCROLL 1.5
1101100010011000,
1101100010011040,
#BPMCHANGE 190
#SCROLL 0.75
1112,
1112,
3333,
#MEASURE 2/4
#BPMCHANGE 95
#SCROLL 4
7008, //18
#MEASURE 4/4
#BPMCHANGE 190
#SCROLL 1
#GOGOSTART
11101012,
10101140,
12101011,
11101140,
11101011,
11101140,
11101011,
1134, //26
#GOGOEND
#MEASURE 3/4
#BPMCHANGE 95
#SCROLL 2
70
#BPMCHANGE 190
#SCROLL 1
0008,
#MEASURE 8/4
#BPMCHANGE 380
#GOGOSTART
600000000000000000000000000000000008000000000000
#SCROLL 0.5
000000000000000000000000400000000000000000000000, //28
#MEASURE 4/4
#BPMCHANGE 190
#SCROLL 1
12101011,
11101140,
11111140,
11111144,
#MEASURE 8/4
#BPMCHANGE 380
#SCROLL 0.5
9,
000000000000000000000000000000000000000000000000900000000000000000000000000000000000000000000008, //34
#GOGOEND
#MEASURE 9/8
#BPMCHANGE 30.536
#SCROLL 6.22
0,
#MEASURE 8/4
#BPMCHANGE 380
#SCROLL 0.5
#GOGOSTART
5,
#MEASURE 5/4
000000000000000000000000000000000000000000000008
#GOGOEND
#BPMCHANGE 95
#SCROLL 3
000000000000,
#MEASURE 8/4
#BPMCHANGE 380
#SCROLL 0.5
#GOGOSTART
6,
#MEASURE 5/4
000000000000000000000000000000000000000000000008
#GOGOEND
#BPMCHANGE 95
#SCROLL 1.33
000000000000, //39
#MEASURE 8/4
#BPMCHANGE 380
#SCROLL 0.5
#GOGOSTART
5,
#MEASURE 5/4
000000000000000000000000000000000000000000000008
#GOGOEND
#BPMCHANGE 95
#SCROLL 4
000000000000,
#MEASURE 8/4
#BPMCHANGE 380
#SCROLL 0.5
#GOGOSTART
7,
#GOGOEND
#MEASURE 1/4
#BPMCHANGE 47.5
#SCROLL 8
8, //43
#MEASURE 8/4
#BPMCHANGE 190
#SCROLL 1
400200202200200200202200,
202200202200
#GOGOSTART
300300300400,
#GOGOEND
#MEASURE 4/4
100101100400,
101101100400,
101101101100,
#MEASURE 2/4
#BPMCHANGE 95
#SCROLL 4
600000000008
#SCROLL 2
000000400000, //49
#MEASURE 4/4
#BPMCHANGE 190
#SCROLL 1
#GOGOSTART
101100200101,
1214,
101100200101,
1114,
101100200101,
1213,
101100200101,
100100303030, //57
#GOGOEND
#MEASURE 2/4
#BPMCHANGE 95
#SCROLL 2
100200101100,
100200101100,
100200101100,
100200101000,
#MEASURE 4/4
#BPMCHANGE 190
#SCROLL 1
3222,
33202020,
11111111,
#MEASURE 8/4
#BPMCHANGE 380
#SCROLL 0.5
500000000000000000000000000000000000000000000000000000000000000000000008000000000000000000000000,
#MEASURE 4/4
#BPMCHANGE 190
#SCROLL 1
#GOGOSTART
30220111,
10110220,
10220112,
20110220,
30440111,
10110220,
30440111,
#MEASURE 6/4
600000000000
#BPMCHANGE 380
#SCROLL 0.5
000000000008000000000000, //73
#MEASURE 4/4
#BPMCHANGE 190
#SCROLL 1
#GOGOSTART
30220111,
#MEASURE 2/4
1011,
#GOGOEND
#BARLINEOFF
#MEASURE 1/64
#BPMCHANGE 23.75
#SCROLL 8
4,
#MEASURE 3/64
4, //77
#BARLINEON
#MEASURE 4/4
#BPMCHANGE 190
#SCROLL 1
#GOGOSTART
30220112,
#MEASURE 3/4
2011
#GOGOEND
#BPMCHANGE 95
#SCROLL 2
78,
#MEASURE 4/4
#BPMCHANGE 190
#SCROLL 1
#GOGOSTART
5,
000000000000000000000000000000000008000000000000,
1111, //82
#MEASURE 8/4
#BPMCHANGE 380
#SCROLL 0.5
11111040,
#GOGOEND
#MEASURE 4/4
#BPMCHANGE 190
#SCROLL 1
3,
0,
#BARLINEOFF
0,
0, //87
#END

COURSE:Easy
LEVEL:5
BALLOON:4,6,12,6,2
SCOREINIT:450,4910
SCOREDIFF:98
#START
#GOGOSTART
1111,
1110,
1212,
3330,
#GOGOEND
1111,
1130,
#GOGOSTART
5,
000000000000000000000008000000000000000000000000,
#GOGOEND
1111,
1130,
#GOGOSTART
5,
000000000000000000000008000000000000000000000000, //12
#GOGOEND
#BPMCHANGE 95
#SCROLL 1.5
1212,
10201044,
#BPMCHANGE 190
#SCROLL 0.75
1110,
1110,
3333,
#MEASURE 2/4
#BPMCHANGE 95
#SCROLL 4
70000800, //18
#MEASURE 4/4
#BPMCHANGE 190
#SCROLL 1
#GOGOSTART
1111,
1130,
1111,
1130,
1111,
1130,
1111,
3034, //26
#GOGOEND
#MEASURE 3/4
#BPMCHANGE 95
#SCROLL 2
7
#BPMCHANGE 190
#SCROLL 1
00,
#MEASURE 8/4
#BPMCHANGE 380
#GOGOSTART
80
#SCROLL 0.5
34, //28
#MEASURE 4/4
#BPMCHANGE 190
#SCROLL 1
1111,
1130,
1114,
1114,
#MEASURE 8/4
#BPMCHANGE 380
#SCROLL 0.5
9,
000000000000000000000000000000000000000000000000900000000000000000000000000000000000000000000008, //34
#GOGOEND
#MEASURE 9/8
#BPMCHANGE 30.536
#SCROLL 6.22
0,
#MEASURE 8/4
#BPMCHANGE 380
#SCROLL 0.5
#GOGOSTART
5,
#MEASURE 5/4
000000000000000000000000000000000000000000000008
#GOGOEND
#BPMCHANGE 95
#SCROLL 3
000000000000,
#MEASURE 8/4
#BPMCHANGE 380
#SCROLL 0.5
#GOGOSTART
6,
#MEASURE 5/4
000000000000000000000000000000000000000000000008
#GOGOEND
#BPMCHANGE 95
#SCROLL 1.33
000000000000, //39
#MEASURE 8/4
#BPMCHANGE 380
#SCROLL 0.5
#GOGOSTART
5,
#MEASURE 5/4
000000000000000000000000000000000000000000000008
#GOGOEND
#BPMCHANGE 95
#SCROLL 4
000000000000,
#MEASURE 8/4
#BPMCHANGE 380
#SCROLL 0.5
#GOGOSTART
7,
#GOGOEND
#MEASURE 1/4
#BPMCHANGE 47.5
#SCROLL 8
8, //43
#MEASURE 8/4
#BPMCHANGE 190
#SCROLL 1
4022,
1222
#GOGOSTART
3330,
#GOGOEND
#MEASURE 4/4
1112,
1112,
3333,
#MEASURE 2/4
#BPMCHANGE 95
#SCROLL 4
600000008000
#SCROLL 2
000000400000, //49
#MEASURE 4/4
#BPMCHANGE 190
#SCROLL 1
#GOGOSTART
1110,
1112,
1110,
1114,
1110,
1112,
1110,
1140, //57
#GOGOEND
#MEASURE 2/4
#BPMCHANGE 95
#SCROLL 2
1212,
1210,
1210,
100110,
#MEASURE 4/4
#BPMCHANGE 190
#SCROLL 1
3111,
3311,
500000000000000000000000000008000000000000000000,
#MEASURE 8/4
#BPMCHANGE 380
#SCROLL 0.5
600000000000000000000000000000000000000000000000000000000008000000000000000000000000000000000000, //65
#MEASURE 4/4
#BPMCHANGE 190
#SCROLL 1
#GOGOSTART
3102,
1114,
1102,
1214,
1102,
1114,
1102,
#MEASURE 6/4
600000000000
#BPMCHANGE 380
#SCROLL 0.5
000008000000000000000000, //73
#MEASURE 4/4
#BPMCHANGE 190
#SCROLL 1
#GOGOSTART
1112,
#MEASURE 2/4
33,
#GOGOEND
#BARLINEOFF
#MEASURE 1/64
#BPMCHANGE 23.75
#SCROLL 8
4,
#MEASURE 3/64
0, //77
#BARLINEON
#MEASURE 4/4
#BPMCHANGE 190
#SCROLL 1
#GOGOSTART
1112,
#MEASURE 3/4
3030
#GOGOEND
#BPMCHANGE 95
#SCROLL 2
78,
#MEASURE 4/4
#BPMCHANGE 190
#SCROLL 1
#GOGOSTART
5,
000000000000000000000000000008000000000000000000,
6, //82
#MEASURE 8/4
#BPMCHANGE 380
#SCROLL 0.5
000000000000000000000000000000000000000000000000000000000008000000000000000000000000000000000000,
#GOGOEND
#MEASURE 4/4
#BPMCHANGE 190
#SCROLL 1
3,
0,
#BARLINEOFF
0,
0, //87
#END
