//TJADB Project
TITLE:Yuuwaku
TITLEJA:誘惑
SUBTITLE:--GLAY
SUBTITLEJA:GLAY
BPM:183.08
WAVE:Yuuwaku.ogg
OFFSET:-1.601
DEMOSTART:12.995 //shinuchi:
5710/4360/2210/1640

COURSE:Oni
LEVEL:7
BALLOON:
SCOREINIT:510,1750
SCOREDIFF:133
#START
#SCROLL 0.99
1111101010101010,
#BPMCHANGE 178.6
#SCROLL 1.02
11111111,
#BPMCHANGE 182.39
#SCROLL 1
33331011,
#MEASURE 3/4
002220202020,
#MEASURE 4/4
#BPMCHANGE 180.44
#SCROLL 1.01
30331011,
#MEASURE 3/4
#BPMCHANGE 180.15
002220202020,
#MEASURE 4/4
#BPMCHANGE 181.69
#SCROLL 1
33331011,
#MEASURE 3/4
#BPMCHANGE 179.03
#SCROLL 1.02
002220202020,
#MEASURE 4/4
#BPMCHANGE 183.43
#SCROLL 0.99
3000303020111020,
#MEASURE 2/4
#BPMCHANGE 188.17
#SCROLL 0.97
0, //10
#MEASURE 4/4
#BPMCHANGE 181.57
#SCROLL 1
#GOGOSTART
1110222010102020,
#BPMCHANGE 180.91
1110222010112000,
2022200010111000,
#BPMCHANGE 182
2022200030303000,
1110222010102020,
1120112000202220,
#BPMCHANGE 182.13
100000100100100000000000500000000000000008000000,
500000000008000000500000000000000008000000000000, //18
#BPMCHANGE 180.62
#SCROLL 1.01
1110222010102020,
1110222010112000,
2022200010111000,
2022200030303000,
#BPMCHANGE 182.05
#SCROLL 1
1110222010102020,
10120201,
100000000000000000500000000000000008000000100000,
#BPMCHANGE 183.37
#SCROLL 0.99
2010201020222220, //26
#GOGOEND
#BPMCHANGE 179.3
#SCROLL 1.01
1010202010111020,
#BPMCHANGE 181.36
#SCROLL 1
1010202010111020,
#BPMCHANGE 180.19
#SCROLL 1.01
1020102011102020,
1020102011102000,
#BPMCHANGE 183.71
#SCROLL 0.99
1010202010111020,
1010202010111020,
#BPMCHANGE 179.74
#SCROLL 1.01
22112210,
30030030,
#BPMCHANGE 184.59
#SCROLL 0.98
03003333, //35
#BPMCHANGE 180.75
#SCROLL 1.01
10210120,
#BPMCHANGE 180.4
1110202000202000,
#BPMCHANGE 182.69
#SCROLL 0.99
10210120,
#BPMCHANGE 181.53
#SCROLL 1
1110202000202000,
10210120,
1110202000202000,
#BPMCHANGE 182.18
12,
20020000, //43
#BPMCHANGE 181.7
1000201110102000,
1110202000202000,
#BPMCHANGE 180.92
1000201110102000,
1110202220202000,
#BPMCHANGE 180.45
#SCROLL 1.01
1000201110102000,
#BPMCHANGE 181.34
#SCROLL 1
1110202000202000,
#BPMCHANGE 183.25
#SCROLL 0.99
12,
#BPMCHANGE 180.34
#SCROLL 1.01
2000002000102210, //51
#BPMCHANGE 183.69
#SCROLL 0.99
0333,
11201120,
#BPMCHANGE 180.04
#SCROLL 1.01
1022201022201020,
1010002022202000,
#BPMCHANGE 182.37
#SCROLL 1
1110200010102000,
1110200010102000,
#BPMCHANGE 182.44
1110200010102000,
#BPMCHANGE 179.82
#SCROLL 1.01
2010201022102010, //59
#BPMCHANGE 183.14
#SCROLL 0.99
00300120,
#BPMCHANGE 183.39
1110200010102000,
#BPMCHANGE 182.26
#SCROLL 1
1022201022201020,
1010002022202000,
#BPMCHANGE 181.88
1110202000202000,
1110202000202000,
#BPMCHANGE 180.54
#SCROLL 1.01
1110201010002000,
000000500000000000000000000008000000000000000000,
#BPMCHANGE 180.34
12120400, //68
#BPMCHANGE 183.59
#SCROLL 0.99
#GOGOSTART
1110222010102020,
1110222010112000,
#BPMCHANGE 181.44
#SCROLL 1
2022200010111000,
#BPMCHANGE 182.52
2022200030303000,
#BPMCHANGE 182.21
1110222010102020,
#BPMCHANGE 179.13
#SCROLL 1.01
1120112000202220,
#BPMCHANGE 182.21
#SCROLL 1
100000100100100000000000500000000000000008000000,
#BPMCHANGE 183.15
#SCROLL 0.99
500000000008000000500000000000000008000000000000, //76
#BPMCHANGE 182.19
#SCROLL 1
1110222010102020,
#BPMCHANGE 180.97
1110222010112000,
2022200010111000,
#BPMCHANGE 184.54
#SCROLL 0.98
2022200030303000,
#BPMCHANGE 179.78
#SCROLL 1.01
1110222010102020,
#BPMCHANGE 181.43
#SCROLL 1
10120201,
100000000000000000500000000000000008000000100000,
#BPMCHANGE 177.77
#SCROLL 1.02
21215000, //84
#BPMCHANGE 184.27
#SCROLL 0.99
000000000000000000080000000000000000000000000000,
#GOGOEND
#MEASURE 3/4
#BPMCHANGE 184.27
0,
#MEASURE 4/4
#BPMCHANGE 178.53
#SCROLL 1.02
0,
#MEASURE 3/4
#BPMCHANGE 185.12
#SCROLL 0.98
0,
#MEASURE 4/4
0, //89
#END

COURSE:Hard
LEVEL:5
BALLOON:
SCOREINIT:510,2400
SCOREDIFF:140
#START
#SCROLL 0.99
500000000008000000100000100000100000100000100000,
#BPMCHANGE 178.6
#SCROLL 1.02
11111111,
#BPMCHANGE 182.39
#SCROLL 1
33301011,
#MEASURE 3/4
022222,
#MEASURE 4/4
#BPMCHANGE 180.44
#SCROLL 1.01
33301011,
#MEASURE 3/4
#BPMCHANGE 180.15
022222,
#MEASURE 4/4
#BPMCHANGE 181.69
#SCROLL 1
33301011,
#MEASURE 3/4
#BPMCHANGE 179.03
#SCROLL 1.02
022222,
#MEASURE 4/4
#BPMCHANGE 183.43
#SCROLL 0.99
33301112,
#MEASURE 2/4
#BPMCHANGE 188.17
#SCROLL 0.97
0, //10
#MEASURE 4/4
#BPMCHANGE 181.57
#SCROLL 1
#GOGOSTART
10201122,
#BPMCHANGE 180.91
10201200,
1011100020222000,
#BPMCHANGE 182
1011100030303000,
10201122,
10120210,
#BPMCHANGE 182.13
100000100100100000000000500000000000000008000000,
500000000008000000500000000000000008000000000000, //18
#BPMCHANGE 180.62
#SCROLL 1.01
10201122,
10201200,
1011100020222000,
1011100030303000,
#BPMCHANGE 182.05
#SCROLL 1
10201122,
10120101,
100000000000000000500000000000000008000000100000,
#BPMCHANGE 183.37
#SCROLL 0.99
2010201020222000, //26
#GOGOEND
#BPMCHANGE 179.3
#SCROLL 1.01
11221120,
#BPMCHANGE 181.36
#SCROLL 1
11221120,
#BPMCHANGE 180.19
#SCROLL 1.01
22112210,
1010200011102000,
#BPMCHANGE 183.71
#SCROLL 0.99
11221120,
11221120,
#BPMCHANGE 179.74
#SCROLL 1.01
22112210,
30030030,
#BPMCHANGE 184.59
#SCROLL 0.98
03003330, //35
#BPMCHANGE 180.75
#SCROLL 1.01
10200120,
#BPMCHANGE 180.4
11220020,
#BPMCHANGE 182.69
#SCROLL 0.99
10200120,
#BPMCHANGE 181.53
#SCROLL 1
11220220,
10200120,
11220020,
#BPMCHANGE 182.18
12,
20020000, //43
#BPMCHANGE 181.7
10200120,
11220020,
#BPMCHANGE 180.92
10200120,
11220220,
#BPMCHANGE 180.45
#SCROLL 1.01
10200120,
#BPMCHANGE 181.34
#SCROLL 1
11220020,
#BPMCHANGE 183.25
#SCROLL 0.99
12,
#BPMCHANGE 180.34
#SCROLL 1.01
20020000, //51
#BPMCHANGE 183.69
#SCROLL 0.99
0333,
11201120,
#BPMCHANGE 180.04
#SCROLL 1.01
11022020,
11022020,
#BPMCHANGE 182.37
#SCROLL 1
10201120,
10201120,
#BPMCHANGE 182.44
10201120,
#BPMCHANGE 179.82
#SCROLL 1.01
21212120, //59
#BPMCHANGE 183.14
#SCROLL 0.99
0300,
#BPMCHANGE 183.39
11201020,
#BPMCHANGE 182.26
#SCROLL 1
11201020,
11022020,
#BPMCHANGE 181.88
11020001,
10220000,
#BPMCHANGE 180.54
#SCROLL 1.01
10211020,
000000500000000000000000000008000000000000000000,
#BPMCHANGE 180.34
12120400, //68
#BPMCHANGE 183.59
#SCROLL 0.99
#GOGOSTART
10201122,
10201200,
#BPMCHANGE 181.44
#SCROLL 1
1011100020222000,
#BPMCHANGE 182.52
1011100030303000,
#BPMCHANGE 182.21
10201122,
#BPMCHANGE 179.13
#SCROLL 1.01
10120210,
#BPMCHANGE 182.21
#SCROLL 1
100000100100100000000000500000000000000008000000,
#BPMCHANGE 183.15
#SCROLL 0.99
500000000008000000500000000000000008000000000000, //76
#BPMCHANGE 182.19
#SCROLL 1
10201122,
#BPMCHANGE 180.97
10201200,
1011100020222000,
#BPMCHANGE 184.54
#SCROLL 0.98
1011100030303000,
#BPMCHANGE 179.78
#SCROLL 1.01
10201122,
#BPMCHANGE 181.43
#SCROLL 1
10120101,
100000000000000000000000500000000008000000100000,
#BPMCHANGE 177.77
#SCROLL 1.02
21215000, //84
#BPMCHANGE 184.27
#SCROLL 0.99
000000000000000000000000080000000000000000000000,
#GOGOEND
#MEASURE 3/4
#BPMCHANGE 184.27
0,
#MEASURE 4/4
#BPMCHANGE 178.53
#SCROLL 1.02
0,
#MEASURE 3/4
#BPMCHANGE 185.12
#SCROLL 0.98
0,
#MEASURE 4/4
0, //89
#END

COURSE:Normal
LEVEL:4
BALLOON:
SCOREINIT:750,4900
SCOREDIFF:263
#START
#SCROLL 0.99
6,
#BPMCHANGE 178.6
#SCROLL 1.02
000000000000000008000000,
#BPMCHANGE 182.39
#SCROLL 1
33,
#MEASURE 3/4
0,
#MEASURE 4/4
#BPMCHANGE 180.44
#SCROLL 1.01
33,
#MEASURE 3/4
#BPMCHANGE 180.15
0,
#MEASURE 4/4
#BPMCHANGE 181.69
#SCROLL 1
33,
#MEASURE 3/4
#BPMCHANGE 179.03
#SCROLL 1.02
0,
#MEASURE 4/4
#BPMCHANGE 183.43
#SCROLL 0.99
33,
#MEASURE 2/4
#BPMCHANGE 188.17
#SCROLL 0.97
0, //10
#MEASURE 4/4
#BPMCHANGE 181.57
#SCROLL 1
#GOGOSTART
1110,
#BPMCHANGE 180.91
1110,
11101110,
#BPMCHANGE 182
11103000,
1110,
22,
#BPMCHANGE 182.13
200000000000000000000000500000000000000008000000,
500000000008000000500000000000000008000000000000, //18
#BPMCHANGE 180.62
#SCROLL 1.01
1110,
1110,
10001110,
11103000,
#BPMCHANGE 182.05
#SCROLL 1
11,
22,
2,
#BPMCHANGE 183.37
#SCROLL 0.99
1120, //26
#GOGOEND
#BPMCHANGE 179.3
#SCROLL 1.01
1210,
#BPMCHANGE 181.36
#SCROLL 1
1210,
#BPMCHANGE 180.19
#SCROLL 1.01
1212,
11102000,
#BPMCHANGE 183.71
#SCROLL 0.99
1210,
1210,
#BPMCHANGE 179.74
#SCROLL 1.01
11102220,
30030030,
#BPMCHANGE 184.59
#SCROLL 0.98
03003330, //35
#BPMCHANGE 180.75
#SCROLL 1.01
11,
#BPMCHANGE 180.4
1,
#BPMCHANGE 182.69
#SCROLL 0.99
11,
#BPMCHANGE 181.53
#SCROLL 1
1,
1011,
1011,
#BPMCHANGE 182.18
12,
20020000, //43
#BPMCHANGE 181.7
11,
1,
#BPMCHANGE 180.92
11,
1,
#BPMCHANGE 180.45
#SCROLL 1.01
1011,
#BPMCHANGE 181.34
#SCROLL 1
1011,
#BPMCHANGE 183.25
#SCROLL 0.99
12,
#BPMCHANGE 180.34
#SCROLL 1.01
20020000, //51
#BPMCHANGE 183.69
#SCROLL 0.99
0333,
1212,
#BPMCHANGE 180.04
#SCROLL 1.01
12,
2,
#BPMCHANGE 182.37
#SCROLL 1
1212,
12,
#BPMCHANGE 182.44
2,
#BPMCHANGE 179.82
#SCROLL 1.01
20202220, //59
#BPMCHANGE 183.14
#SCROLL 0.99
0300,
#BPMCHANGE 183.39
1212,
#BPMCHANGE 182.26
#SCROLL 1
12,
2,
#BPMCHANGE 181.88
11010000,
11010000,
#BPMCHANGE 180.54
#SCROLL 1.01
11,
000000500000000000000000000008000000000000000000,
#BPMCHANGE 180.34
11110300, //68
#BPMCHANGE 183.59
#SCROLL 0.99
#GOGOSTART
1110,
1110,
#BPMCHANGE 181.44
#SCROLL 1
11101110,
#BPMCHANGE 182.52
11103000,
#BPMCHANGE 182.21
1110,
#BPMCHANGE 179.13
#SCROLL 1.01
22,
#BPMCHANGE 182.21
#SCROLL 1
200000000000000000000000500000000000000008000000,
#BPMCHANGE 183.15
#SCROLL 0.99
500000000008000000500000000000000008000000000000, //76
#BPMCHANGE 182.19
#SCROLL 1
1110,
#BPMCHANGE 180.97
1110,
10001110,
#BPMCHANGE 184.54
#SCROLL 0.98
11103000,
#BPMCHANGE 179.78
#SCROLL 1.01
11,
#BPMCHANGE 181.43
#SCROLL 1
22,
2,
#BPMCHANGE 177.77
#SCROLL 1.02
1150, //84
#BPMCHANGE 184.27
#SCROLL 0.99
000000000000000000080000000000000000000000000000,
#GOGOEND
#MEASURE 3/4
#BPMCHANGE 184.27
0,
#MEASURE 4/4
#BPMCHANGE 178.53
#SCROLL 1.02
0,
#MEASURE 3/4
#BPMCHANGE 185.12
#SCROLL 0.98
0,
#MEASURE 4/4
0, //89
#END

COURSE:Easy
LEVEL:3
BALLOON:
SCOREINIT:600,6920
SCOREDIFF:245
#START
#SCROLL 0.99
6,
#BPMCHANGE 178.6
#SCROLL 1.02
000000000000000008000000,
#BPMCHANGE 182.39
#SCROLL 1
33,
#MEASURE 3/4
0,
#MEASURE 4/4
#BPMCHANGE 180.44
#SCROLL 1.01
33,
#MEASURE 3/4
#BPMCHANGE 180.15
0,
#MEASURE 4/4
#BPMCHANGE 181.69
#SCROLL 1
33,
#MEASURE 3/4
#BPMCHANGE 179.03
#SCROLL 1.02
0,
#MEASURE 4/4
#BPMCHANGE 183.43
#SCROLL 0.99
33,
#MEASURE 2/4
#BPMCHANGE 188.17
#SCROLL 0.97
0, //10
#MEASURE 4/4
#BPMCHANGE 181.57
#SCROLL 1
#GOGOSTART
11,
#BPMCHANGE 180.91
11,
1110,
#BPMCHANGE 182
1110,
11,
22,
#BPMCHANGE 182.13
25,
000000000000000000000000000008000000000000000000, //18
#BPMCHANGE 180.62
#SCROLL 1.01
11,
11,
1110,
1110,
#BPMCHANGE 182.05
#SCROLL 1
11,
22,
2,
#BPMCHANGE 183.37
#SCROLL 0.99
1110, //26
#GOGOEND
#BPMCHANGE 179.3
#SCROLL 1.01
11,
#BPMCHANGE 181.36
#SCROLL 1
11,
#BPMCHANGE 180.19
#SCROLL 1.01
22,
2,
#BPMCHANGE 183.71
#SCROLL 0.99
11,
11,
#BPMCHANGE 179.74
#SCROLL 1.01
22,
30030030,
#BPMCHANGE 184.59
#SCROLL 0.98
03003000, //35
#BPMCHANGE 180.75
#SCROLL 1.01
1,
#BPMCHANGE 180.4
1,
#BPMCHANGE 182.69
#SCROLL 0.99
1,
#BPMCHANGE 181.53
#SCROLL 1
1,
1,
11,
#BPMCHANGE 182.18
11,
2, //43
#BPMCHANGE 181.7
1,
1,
#BPMCHANGE 180.92
11,
1,
#BPMCHANGE 180.45
#SCROLL 1.01
1,
#BPMCHANGE 181.34
#SCROLL 1
11,
#BPMCHANGE 183.25
#SCROLL 0.99
12,
#BPMCHANGE 180.34
#SCROLL 1.01
2, //51
#BPMCHANGE 183.69
#SCROLL 0.99
0333,
11,
#BPMCHANGE 180.04
#SCROLL 1.01
11,
2,
#BPMCHANGE 182.37
#SCROLL 1
11,
11,
#BPMCHANGE 182.44
2,
#BPMCHANGE 179.82
#SCROLL 1.01
2222, //59
#BPMCHANGE 183.14
#SCROLL 0.99
0300,
#BPMCHANGE 183.39
11,
#BPMCHANGE 182.26
#SCROLL 1
11,
2,
#BPMCHANGE 181.88
1,
1,
#BPMCHANGE 180.54
#SCROLL 1.01
11,
000000500000000000000000000008000000000000000000,
#BPMCHANGE 180.34
30300300, //68
#BPMCHANGE 183.59
#SCROLL 0.99
#GOGOSTART
1110,
1110,
#BPMCHANGE 181.44
#SCROLL 1
33,
#BPMCHANGE 182.52
33,
#BPMCHANGE 182.21
1110,
#BPMCHANGE 179.13
#SCROLL 1.01
22,
#BPMCHANGE 182.21
#SCROLL 1
25,
#BPMCHANGE 183.15
#SCROLL 0.99
000000000000000000000000000008000000000000000000, //76
#BPMCHANGE 182.19
#SCROLL 1
1110,
#BPMCHANGE 180.97
1110,
3033,
#BPMCHANGE 184.54
#SCROLL 0.98
33,
#BPMCHANGE 179.78
#SCROLL 1.01
11,
#BPMCHANGE 181.43
#SCROLL 1
22,
2,
#BPMCHANGE 177.77
#SCROLL 1.02
1150, //84
#BPMCHANGE 184.27
#SCROLL 0.99
000000000000000000080000000000000000000000000000,
#GOGOEND
#MEASURE 3/4
#BPMCHANGE 184.27
0,
#MEASURE 4/4
#BPMCHANGE 178.53
#SCROLL 1.02
0,
#MEASURE 3/4
#BPMCHANGE 185.12
#SCROLL 0.98
0,
#MEASURE 4/4
0, //89
#END
