//TJADB Project
TITLE:Taiko Drum Monster
TITLEJA:Taiko Drum Monster
SUBTITLE:--steμ feat. siroa
SUBTITLEJA:steμ feat.siroa
BPM:266
WAVE:Taiko Drum Monster.ogg
OFFSET:-1.905
DEMOSTART:79.405

COURSE:Edit
LEVEL:10
BALLOON:3,20
SCOREINIT:950
SCOREDIFF:0
#START
4444,
300111221111,
#GOGOSTART
100000101010200010100200,
100000200200100000000000100010001000200010001000,
100000101010200010100200,
100000200200100000200000100020002000100020002000,
100020101010200010100200,
100000200200100000200000100010001000200010001000,
102020102020100020100100,
200200200300000600000800,
1020111010201010,
1110202011102010,
1000201020201110,
100100200100101010202010,
1000201010112010,
101020101020100010200100,
100010002000100020002000100100200200100200200200,
700000000800200110200000,
#GOGOEND
101210101210,
100000001000200010000000100000100100200000000000,
1010201210102220,
1010201120102000,
202120202120,
200000002000100020000000200000200200100000000000,
100100200210100100200210,
111202202100,
1010200011102020,
1010222010102010,
1110200010102220,
100000100000200200100000100020002000100000200000,
3000200040112020,
300101401100,
500000000000000000000000000000000000000008000000,
30
#SCROLL 0.75
22,
101200101100,
100100000020200000200000,
100010001000200000000000200000000200000000200000,
100100000020200000100100,
000200200200100000000000100000002000000000001000,
000020100400000400000100,
000000101010100000100000200000001000000000003000,
001222111200,
100020100100400000100100,
100100100000100000200200200000200000100010001000,
100000100000201010100100,
222211122100,
30214021,
3001002040001010,
111101211102,
101010100100400000400000,
#SCROLL 1
100205000000,
000000000000000000000000000008000000000000000000,
2222,
300111221100,
0000
#GOGOSTART
400220101020,
100200100200201010201010,
101010201010100100200100,
100100100000200000001000100020002000100020002000,
101010201010100100200100,
100100100000200000100000200010001000200010001000,
101010201010100100200100,
411141114111,
300010201010100100200100,
100200100200201010201010,
101010201010100100200100,
100100100000200000000000100020002000100020002000,
101010201010100100200100,
100200100200201010201010,
40014000,
4
#GOGOEND
#SCROLL 0.75
000222020002000,
101210101210,
100010201000100100200200,
200000200000000000500000000000000000000000000008,
0011,
202120202120,
200020102000200200100100,
100000100000000000500000000000000000000000000008,
0012,
1011200010201012,
101222122122,
1000111110122000,
300222111100,
#SCROLL 1
300000202020100100200200,
1110102010002000,
300102100102,
1100001000201110002000
#GOGOSTART
10,
000020100010100000220010,
000020200010200000110010,
001100404001,
002102200101,
100100100000100000001000200000001000000000003000,
002101100203,
002102102202,
122103002201,
000020100000400000220010,
000010200000400000110010,
001101404001,
002102221103,
002122122122,
#SCROLL 1.25
100010001000100010001000100100100100100000000000,
#SCROLL 1.5
300000000
#SCROLL 1
101,
200200222222,
#GOGOEND
300001002100,
100000002000100000000000
#SCROLL 3
500000000008000000000000,
#SCROLL 1
111212121212,
100020002000100020002000
#SCROLL 4.5
600000000008000000000000,
#SCROLL 0.75
100101200100,
100000200000220000200000,
100102100100,
100000100000220020101010,
100102100100,
100000200000220000200000,
100101200100,
100000100000220010100000,
112211112201,
100020100022200020100000,
122111122101,
100000002000100000002000100100100100200000000000,
112211112201,
100000002000100000002000100020002000100200200200,
100102111211,
50000000000000000000000000000000000800000000
#GOGOSTART
#SCROLL 1
1000,
000020100010100000220010,
000020200010200000110010,
001100404001,
002102200101,
200000002000100000100100200000002000000000003000,
000000002000100000100100200000100000200000003000,
000020102020100020200100,
122203002221,
100000001000200000000000400000100100200000002000,
000000002000200000000000400000100100200000002000,
001100404001,
002102112300,
7,
0008,
#GOGOEND
200200200400101010102010,
101010201012101010202010,
100201001101,
112122111222,
300002000400,
#END

COURSE:Oni
LEVEL:10
BALLOON:3,10,2,3,4,2,2
SCOREINIT:370
SCOREDIFF:80
#START
3333,
600000000000000000000000000000000008000000000000,//2
#GOGOSTART
111111200111,
100200100000101010200000,
111211100111,
100200100000201010100000,
111111200111,
100200100000101010200000,
101010200200101010100000,
101010100400000400000000,
111111200111,
100200100000101010200000,
111211100111,
100200100000201010100000,
111111200100,
111200111200,
122201112111,
7844,//18
#GOGOEND
112212,
201010102200,
100200000100000010100000,
100100102200,
112212,
102011102200,
100100100000000000100000000000001000200000000000,
102101201100,
1112,
100100102200,
100200101200,
111202102200,
300000202020100200200200,
101100100100,
500000000000000008000000,
400000000000
#SCROLL 0.75
200000200000200000200000200000200000,
100100211100,
100100000010100020200000,
100010001000100000000000300000000300000000300000,
100100200000000000001000200000002000100000100000,
000000200200100000001000100000001000000000002000,
000020200300000300000300,
000000200200100000001000100000001000000000002000,
002200300400,
100100222100,
100000200000100100100000400000000000200020002000,
100100222100,
111222111200,
2222,
2002002010004000,
122101221122,
111100400000,
#SCROLL 1
100201001200,
101200100200,
3333,
600000000000000000000000000000000000000008000000,
000//55
#GOGOSTART
300000111,
100200100000101010200000,
111211100111,
100200100000201010100000,
111111200111,
100200100000101010200000,
101010200200101010200000,
323230,
101010101010200200101010,
100200100000101010200000,
101010201010100200101010,
100200100000201010100000,
101010101010200200101010,
100200100000101010200000,
33,
4//70
#GOGOEND
00000000000
#SCROLL 0.75
2222,
101004001022,
2000102220001020,
200000200000000000100100200000002000100000004000,
0111,
202020200000300000200200,
22302222,
300202020300,
202020300222,
22302102,
102222111222,
1000111000111000,
7008,
#SCROLL 1
30201022,
100000000000200020002000100000000000200200200200,
1078,
70080070080//86
#GOGOSTART
1,
000100100401,
001102100401,
001102111101,
002101102111,
100100201001,
002222101203,
0333,
302203002101,
001222100401,
001222100401,
001202111201,
001201110405,
000000000000000000000000000000000008000000000000,
#SCROLL 1.25
600000000000000000000000000008000000
#SCROLL 2
000000000700,
008000000000000000000000000000000000
#SCROLL 1
100000001000,
200000200000200000222000,//102
#GOGOEND
300201102100,
200000001000100000000000
#SCROLL 3
500000000008000000000000,
#SCROLL 1
400104000400,
000000001000200000000000
#SCROLL 4.5
600000000008000000000000,
#SCROLL 0.75
3003,
03,
3003,
03,
3003,
03,
3003,
000000302200,
100401001100,
101002102222,
100401002202,
102222111122,
100401001102,
111222111222,
100201001201,
10001000100010001000100010001000100010000000//122
#SCROLL 1
#GOGOSTART
1000,
001111200401,
001122100401,
001102111101,
002101102200,
101010201010100200101010,
100200100000101010200030,
000020100200102020100200,
302203002102,
002111200102,
002111200100,
101010201010100200101010,
100200101010200000300000,
6,
000000000000000000000000000000000000000000000008,//136
#GOGOEND
,
03,
112122112122,
112122111107,
800001000300,
#END

COURSE:Hard
LEVEL:7
BALLOON:15,5,6,10,10,2,3
SCOREINIT:400
SCOREDIFF:120
#START
#SCROLL 0.75
3333,
600000000000000000000000000008000000000000000000,//2
#GOGOSTART
100101001100,
1110,
100101001100,
1110,
100101001100,
1110,
100101001100,
10010400,
100101001100,
1110,
100101001100,
1110,
100101001100,
1110,
500000000000000000000000000000000000000000000008,
0044,//18
#GOGOEND
1212,
111100,
100000000000000000500000000000000000000000000008,
0222,
1212,
111100,
100000000000000000500000000000000000000000000008,
0011,
1222,
1222,
1222,
1220,
30001111,
1111,
1,
4,
1120,
100100000020200000000000,
1000000030030030,
100100000020200000000500,
000000000000000000000000000000000000000000000008,
00030303,
000200202002,
0110,
1140,
11004000,
1140,
34,
2222,
1001001010000000,
100101001100,
1140,
7,
08,
3333,
600000000000000000000000000008000000000000000000,
000//55
#GOGOSTART
300001100,
1110,
100101001100,
1110,
100101001100,
1110,
100101001100,
444,
100101001100,
22202000,
100101001100,
22202000,
100101001100,
22202020,
33,
4//70
#GOGOEND
00000000000,
200222,
101010100100,
10070000,
8011,
200222,
101010100100,
10070000,
8022,
7,
8022,
7,
8,
40001111,
1111,
32,
20000020000//86
#GOGOSTART
1,
000100100201,
000100100201,
000100101002,
002002200000,
500000000000000000000000000000000000000000000008,
000000200203,
0333,
300003000001,
000100100201,
000100100201,
000100101002,
002002200005,
000000000000000000000000000000000008000000000000,
#SCROLL 0.95
600000000000000000000000000008000000
#SCROLL 1.1
000700000000,
8,
#SCROLL 0.75
2224,//102
#GOGOEND
100001000100,
0110,
200002000200,
0220,
3003,
03,
3003,
03,
3003,
03,
3003,
03,
30003000300,
0430,
30003000300,
0430,
30003000300,
0430,
30003000300,
60000000000000000000000000000800000000000000//122
#GOGOSTART
1000,
000100100201,
000100100201,
000100101002,
002002200000,
500000000000000000000000000000000000000000000008,
000000200203,
0333,
300003000001,
000100100002,
000100100001,
000100101001,
001001100300,
6,
000000000000000000000000000000000000000000000008,//136
#GOGOEND
,
03,
100201001200,
1217,
080001000300,
,
,
,
,
#END

COURSE:Normal
LEVEL:5
BALLOON:9,16,9
#START
3333,
600000000000000000000000000008000000000000000000,//2
#GOGOSTART
1001,
01,
1001,
01,
1001,
01,
500000000000000000000000000000000000000000000008,
,
1001,
01,
1001,
01,
1001,
01,
500000000000000000000000000000000000000000000008,
02,//18
#GOGOEND
11,
1011,
100000000000000000500000000000000000000000000008,
,
22,
2022,
200000000000000000500000000000000000000000000008,
0011,
11,
2011,
11,
22,
31,
1111,
1,
4,
1110,
11,
3330,
30003005,
000000000000000000000000000000000000000000000008,
00010101,
02,
22,
33,
44,
33,
44,
2220,
22,
11,
14,
9,
09,
8,
,
0//55
#GOGOSTART
300,
01,
1001,
01,
1001,
01,
500000000000000000000000000000000000000000000008,
,
1001,
02,
1001,
02,
1001,
2,
33,
4//70
#GOGOEND
000000000000000,
1,
01,
2,
02,
1,
11,
2,
02,
7,
,
,
08,
34,
1111,
3,
00000000000//86
#GOGOSTART
0,
1110,
2220,
1110,
22,
500000000000000000000000000000000000000000000008,
0011,
11,
300003000000,
1110,
2220,
1110,
200000200005,
000000000000000000000000000000000008000000000000,
#SCROLL 0.95
600000000000000000000000000008000000000000000000,
#SCROLL 1
3,
#SCROLL 0.75
,//102
#GOGOEND
1001,
0220,
1001,
0220,
3003,
03,
3003,
03,
3003,
03,
3003,
03,
3003,
0430,
3003,
0430,
3003,
0430,
3,
60000000000000000000000000000800000000000000//122
#GOGOSTART
0000,
1110,
2220,
1110,
22,
500000000000000000000000000000000000000000000008,
0011,
11,
300003000000,
1110,
2110,
1110,
2110,
9,
09,//136
#GOGOEND
8,
,
1001,
0220,
3003,
,
,
,
,
#END

COURSE:Easy
LEVEL:3
BALLOON:7,7,12,7
#START
#SCROLL 0.75
33,
3,//2
#GOGOSTART
1,
1,
11,
1,
1,
1,
11,
1,
1,
1,
11,
1,
1,
1,
500000000000000000000000000000000000000000000008,
,//18
#GOGOEND
1,
11,
1,
,
1,
11,
1,
,
11,
1,
11,
1,
3,
11,
1,
4,
1,
33,
1,
33,
7,
,
8,
,
2,
44,
2,
44,
2,
2,
11,
1,
9,
09,
8,
,
1//55
#GOGOSTART
000,
1,
11,
1,
2,
2,
22,
2,
11,
1,
11,
1,
22,
2,
44,
4//70
#GOGOEND
000000000000000,
1,
01,
2,
,
1,
01,
2,
,
7,
,
,
08,
1,
11,
3,
00000000000//86
#GOGOSTART
0,
11,
22,
11,
1,
500000000000000000000000000000000000000000000008,
,
1,
3,
11,
22,
11,
100000000005,
,
000000000000000000000008000000000000000000000000,
#SCROLL 1
3,
#SCROLL 0.75
,//102
#GOGOEND
1,
02,
1,
02,
3003,
03,
3003,
03,
3003,
03,
3003,
03,
3003,
03,
3003,
03,
3003,
03,
6,
00000000000000000000000800000000000000000000//122
#GOGOSTART
0000,
11,
22,
11,
1,
500000000000000000000000000000000000000000000008,
,
1,
3,
11,
22,
11,
1,
9,
09,//136
#GOGOEND
8,
,
1001,
,
3003,
,
,
,
,
#END
