//TJADB Project
TITLE:Oodain
TITLEJA:大打音
SUBTITLE:--Ordyne
SUBTITLEJA:「オーダイン」より
BPM:135
WAVE:Oodain.ogg
OFFSET:-1.998
DEMOSTART:1.998

COURSE:Oni
LEVEL:8
SCOREINIT:260
SCOREDIFF:68
#START
4444,
4000400400000000,
#SECTION
#BRANCHSTART p,999,99
#N
1002001020010020,
1002001020010020,
2222,
2020220200222220,
1001001001003030,
3000000000001100,
1121,
1010120200202000,
1101101102202020,
1101101100101100,
1122,
1010120200202200,
1101101101202020,
3003003000121100,
1021000010210020,
1202120212021000,
1021000000201200,
1202120212021020,
1021000010210020,
1202120212021220,
1021000000000000,
1020122203030300,
#GOGOSTART
1021102110210120,
1021112010210120,
1021102110210120,
1021021021021020,
1020102012011020,
1020100211221111,
1020102012112020,
1021102110211020,
500000000000000000000000000000000000000000000008,
#GOGOEND
,
1011120101111200,
100000100100100200000000100010001000200010001000,
1111220011121200,
1121120012111200,
1011220101112200,
100000100100200200000100100010001000200010001000,
1111220011121200,
1121120012111201,
1011220110112200,
100100100200200200000000100010001000200010001000,
#GOGOSTART
1112220011212200,
1211220012121201,
1112221112221111,
0030030030030030,
#GOGOEND
1001101010002000,
1012110100202200,
1101121102102010,
1101121100201200,
1001101020002000,
1012110100202200,
1101121102112020,
1101121100404000,
#GOGOSTART
1112011101012111,
0101012110010010,
0000011210010010,
0100000003030300,
1211212102121121,
0112121121211212,
0101100101200102,
2002022003040403,
#GOGOEND
0111,
1010110100000400,
1010220102112110,
1010220100211210,
1122,
1010120200000200,
1102201102201010,
1102201000303000,
#E
,
,
,
,
,
,
,
,
,
,
,
,
,
,
,
,
,
,
,
,
,
,
,
,
,
,
,
,
,
,
,
,
,
,
,
,
,
,
,
,
,
,
,
,
,
,
,
,
,
,
,
,
,
,
,
,
,
,
,
,
,
,
,
,
,
,
,
,
,
,
,
,
#M
#SCROLL 1.66
3004003040030040,
3004003040030040,
4444,
4040440400444440,
3003003003003030,
3000000000003300,
3343,
3030340400404000,
3303303304404040,
3303303300303300,
3344,
3030340400404400,
3303303303404040,
3003003000343300,
3043000030430040,
3404340434043000,
3043000000403400,
3404340434043040,
3043000030430040,
3404340434043440,
3043000000000000,
3040344403030300,
#GOGOSTART
3043304330430340,
3043334030430340,
3043304330430340,
3043043043043040,
3040304034033040,
3040300433443333,
3040304034334040,
3043304330433040,
600000000000000000000000000000000000000000000008,
#GOGOEND
,
3033340303333400,
300000300300300400000000300030003000400030003000,
3333440033343400,
3343340034333400,
3033440303334400,
300000300300400400000300300030003000400030003000,
3333440033343400,
3343340034333403,
3033440330334400,
300300300400400400000000300030003000400030003000,
#GOGOSTART
3334440033434400,
3433440034343403,
3334443334443333,
0030030030030030,
#GOGOEND
3003303030004000,
3034330300404400,
3303343304304030,
3303343300403400,
3003303040004000,
3034330300404400,
3303343304334040,
3303343300404000,
#GOGOSTART
3334033303034333,
0303034330030030,
0000033430030030,
0300000003030300,
3433434304343343,
0334343343433434,
0303300303400304,
4004044003040403,
#GOGOEND
0333,
3030330300000400,
3030440304334330,
3030440300433430,
3344,
3030340400000400,
3304403304403030,
3304403000303000,
#BRANCHEND
#END

COURSE:Hard
LEVEL:7
SCOREINIT:540
SCOREDIFF:148
#START
2220,
2020220200000000,
1002001000000000,
1002001000000000,
2220,
2020220200000000,
1001001001003030,
3,
1121,
1010220200101100,
1001001002002000,
1001001000101100,
1121,
1010220200101100,
1001001002002000,
1001001000303000,
1001000000000020,
1111,
1001000000202200,
1112,
1001000000000020,
1111,
1001000000000000,
1020101101010100,
#GOGOSTART
1011101110111011,
1011101110111010,
1011101110111011,
1011101011011000,
1020102012010000,
1020102012010000,
1020102012012020,
1110111011101110,
500000000000000000000000000000000000000000000008,
#GOGOEND
,
12001200,
100200000000101010101010,
1020010010200100,
1020010010200100,
1020010010200100,
100000200000000100000000100010001000100010001000,
1020110010201100,
1020110010201100,
1020110010201100,
100000200000100100000000100010001000100010001000,
#GOGOSTART
1020120010201200,
1020120010201200,
1102201102201102,
2030030030030030,
#GOGOEND
1122,
1010110100202000,
1101101001001000,
1101101000101000,
1122,
1010110100202000,
1101101002002000,
1101101000202200,
#GOGOSTART
1011020201011011,
0202011010010010,
0000011010010010,
0100000003030300,
1110111102202222,
0110111022022022,
0101100101200102,
2002022003040403,
#GOGOEND
0111,
1010110100000400,
1010220102002000,
1010220100200200,
10112020,
1010120200000200,
1102201102201010,
1102201000303000,
#END

COURSE:Normal
LEVEL:7
SCOREINIT:730
SCOREDIFF:223
#START
2220,
2020200200000000,
1001001000000000,
1001001000000000,
2220,
2020200200000000,
1001001001001000,
3,
1120,
1010100100000000,
1001001000002000,
1001001000000000,
1120,
1010100100000000,
1001001000002000,
1001001000303000,
10000002,
1111,
10000220,
1122,
20000002,
1111,
1,
500000000000000000000000000000000008000000000000,
#GOGOSTART
11111110,
1111,
11111110,
1110,
1111,
11111110,
1111,
3333,
500000000000000000000000000000000000000000000008,
#GOGOEND
,
11,
100000000000000000000000500000000008000000000000,
12001200,
12001200,
12001200,
100000200000000000000000500000000008000000000000,
11101000,
11101000,
11101000,
100000100000100000000000500000000008000000000000,
#GOGOSTART
11101010,
11101010,
11111111,
0010010010010010,
#GOGOEND
0122,
1010100100000000,
1101101000000000,
1101101000000000,
1122,
1010100100000000,
1101101000000000,
1101101000004000,
#GOGOSTART
1010101100002000,
1010100010020020,
0000000010020020,
500000000000000000000000000000000008000000000000,
1011011010002000,
1011011010002020,
00100100,
1000001003030300,
#GOGOEND
0110,
1010100100000400,
1101101000002000,
1101101000000000,
1122,
1010100100000000,
1101102000000000,
1101102000303000,
#END

COURSE:Easy
LEVEL:5
SCOREINIT:550
SCOREDIFF:193
#START
11,
22,
10010000,
10010000,
11,
22,
30030030,
3,
1110,
2000200200000000,
10010000,
10010000,
1110,
2000200200000000,
10010000,
10010010,
3,
1111,
1,
1111,
1,
1111,
1,
500000000000000000000000000000000008000000000000,
#GOGOSTART
1111,
1110,
1111,
1110,
1111,
1111,
1111,
3333,
500000000000000000000000000000000000000000000008,
#GOGOEND
,
11,
1011,
1012,
1012,
1012,
1011,
1022,
2022,
2022,
2011,
#GOGOSTART
1111,
1111,
1111,
03003003,
#GOGOEND
0110,
1000100100000000,
10110000,
10110000,
1110,
1000100100000000,
10110000,
10110040,
#GOGOSTART
10110000,
1000000010010010,
0000000010010010,
,
10110000,
10110000,
00300300,
30030000,
#GOGOEND
1111,
1000100100000000,
10110000,
10110000,
1111,
1000100100000000,
10220000,
10220030,
#END
