//TJADB Project
TITLE:Future Lab
TITLEJA:フューチャー・ラボ
SUBTITLE:--YMY
BPM:159.99
WAVE:Future Lab.ogg
OFFSET:-1.977
DEMOSTART:48.469

COURSE:Oni
LEVEL:8
BALLOON:30,20
SCOREINIT:460
SCOREDIFF:100
#START
00000202,
10211021,
0010201022222000,
10211021,
01210202,
10211021,
0020111022201110,
1000201011102010,
11210202,
1000201011102010,
1110201000202000,
1000201011102010,
1011201000200020,
1020102011102010,
1110201000000000,
1022201010112010,
1011201000200020,
1011201010102011,
1010201000111000,
1020111010102010,
1011201000200020,
1020101011112020,
11210000,
2020102022102020,
1022201022221020,
10221202,
0020102012221222,
1022201022201022,
2010222010102010,
3333,
3330,//31
#GOGOSTART
1011101120222022,
1011101110221022,
1011101120222030,
0030003000201111,
1011101120222022,
1011101110221022,
1011101120221111,//38
#BPMCHANGE 159.74
10000210,
#GOGOEND
#BPMCHANGE 159.99
10200112,
00201121,
10200112,
0000200000121212,
00221202,
01201021,
2011101000002020,
1110201000102222,
10202121,
01211021,
10202102,
#BPMCHANGE 160.24
0010102011201020,
#BPMCHANGE 159.99
1020201022201020,
1020201022221020,
11220122,
1120102000201020,
1010201011102010,
2010102011102010,
7,
00000800,
2222222222222220,
0000000011221122,//61
#GOGOSTART
1011101120222022,
1011101110221022,
1011101120222030,
0030003000201122,
1011101120222022,
1011101110221022,
1011101120221121,//68
#GOGOEND
1000000021112111,//69
#GOGOSTART
1011202210112022,
1011202210221121,
1011202210112030,
0030004000401111,
1011202210112022,
1011202210112212,
1011202210112220,//76
#GOGOEND
30000220,
1110102010102010,
1110201022102210,
1110202011102010,
2220102010200020,
7,
00000800,
000022100000000000000000,
#END

COURSE:Hard
LEVEL:8
BALLOON:30,20
SCOREINIT:560
SCOREDIFF:120
#START
00000202,
10211021,
01211020,//3
10211021,
01211020,
10211021,
0010111011101110,
10211021,
10210202,
10211021,
10210220,
10211021,
10210202,
10211021,
3000300000111000,
10211021,
10210202,
10211021,
10210220,
10211021,
10210202,
10211021,
10210000,
12212212,
21221121,
10221202,
02121101,
12212212,
21221121,
3333,
3330,//31
#GOGOSTART
1000100010111010,
1011101000200020,
1000100010111030,
03030400,
1000100010111010,
1011101000200020,
1000100010111011,//38
#GOGOEND
1,
10000221,
00101121,
10200221,
00100202,
10221202,
01201021,
1011101000100010,
2022202000200020,
10202102,
01201021,
1011101000200020,
1011101000200020,
12212212,
12212212,
1110101000100010,
2220202000200020,
12212212,
12212212,
7,
,
,
8,//61
#GOGOSTART
1000100010111010,
1011101000200020,
1000100010111030,
03030400,
1000100010111010,
1011101000200020,
1000100010111020,//68
#GOGOEND
1000000011111000,//69
#GOGOSTART
1011101110202010,
1011101110202020,
1011101110202030,
03030400,
1011101110202010,
1011101110202020,
1011101110202020,//76
#GOGOEND
3,
1110201010102010,
01210202,
1110201010102010,
01210202,
7,
0008,
0022100000000000,
,
,//86
#END

COURSE:Normal
LEVEL:5
BALLOON:20,15
SCOREINIT:650
SCOREDIFF:170
#START
,
10011000,
1100,//3
10011000,
1102,
10011001,
0220,
1210,
1102,
1210,
1102,
1210,
1102,
1210,
3300,
1210,
10200101,
1210,
1102,
1210,
10200101,
1210,
3300,
1202,
1202,
3302,
3302,
1202,
1202,
3333,
3330,//31
#GOGOSTART
1210,
1211,
10201003,
03040400,
1210,
1211,
1210,//38
#GOGOEND
3,
0202,
0202,
0202,
0202,
1202,
1202,
10110020,
10110020,
1202,
1202,
10110020,
10110020,
10010020,
10010020,
30030000,
40040000,
10010020,
10010020,
7,
,
,
8,//61
#GOGOSTART
1210,
1211,
10201003,
03040400,
1210,
1211,
1210,//68
#GOGOEND
10001110,//69
#GOGOSTART
1210,
10201110,
10201003,
03040400,
1210,
10201110,
1212,//76
#GOGOEND
3,
1210,
11101010,
1210,
11101000,
7,
,
8300,
,
,//86
#END

COURSE:Easy
LEVEL:3
BALLOON:20,10
SCOREINIT:510
SCOREDIFF:140
#START
,
11,
1100,//3
11,
1100,
11,
58,
11,
1,
11,
1100,
11,
1,
11,
3300,
1110,
1100,
1110,
1100,
1110,
1100,
1110,
3300,
12,
12,
3300,
3300,
12,
12,
3333,
3300,//31
#GOGOSTART
1110,
2200,
1110,
33,
1110,
2200,
1110,//38
#GOGOEND
3,
0202,
0202,
0202,
0200,
1101,
1100,
3300,
4400,
1101,
1100,
3300,
4400,
10010000,
10010000,
30030000,
40040000,
10010000,
10010000,
7,
,
,
8,//61
#GOGOSTART
1110,
2200,
1110,
33,
1110,
2200,
1110,//68
#GOGOEND
3,//69
#GOGOSTART
1110,
2220,
1110,
44,
1110,
2220,
1110,//76
#GOGOEND
3,
11,
1110,
11,
1100,
9,
009,
8,
,
,//86
#END
