//TJADB Project
TITLE:Kawatare-doki no Yuuwaku
TITLEJA:彼は誰時の誘惑
SUBTITLE:--t+pazolite
SUBTITLEJA:t+pazolite
BPM:216
WAVE:Kawatare-doki no Yuuwaku.ogg
OFFSET:-2.329
DEMOSTART:13.428 //shinuchi:
8510/5430/2750/1570/1060

COURSE:Edit
LEVEL:10
BALLOON:
SCOREINIT:380,1100
SCOREDIFF:95
#START
#MEASURE 8/4
#SCROLL 0.75
200000000000200000000000200000000200000000200000200000200020002000200200200200202020100000000000,
10000010200010221020201020221022,
100000202020000000100000200000200200100000200200200200100000200020001000200000000000100000200200,
100000200200200000100000200000000200100000200200100000200000202020100000200000200200100000200200,
100000202020000000100000200000200200100000200200000000100000100010001000100000000000400000000000,
3021012010201220,
10002010001020001000400040001111,
1021012010211020,
1021012210414040, //9
1021012010201220,
10002010001020001000400040001111,
1021012010211020,
100000001000000010000000000000100100100000200000300000000000000000000000000000000000000000000000,
10111010201011112011001020212220,
100000100100200020001000200000100000202000000000101000100000101010100000200000101000100000000000,
10111010201021112010111020212220,
100000202000000000100000200100100100100000202020100000000000300000000000300000000000000000000000, //17
40022002,
200000000200000000200000200000000000400000100020,
100101200101102101200102,
100101200101102101200000,
10220020002200200022102010202022,
10220020002200200022102010102222,
10220020102200201022202010222020,
100020002000100020002000100200200200100100100200000000000000000000000000600000000008000000000000, //25
#MEASURE 4/4
#GOGOSTART
3011201010222010,
100000202020200000200000100000200100200000000000,
#MEASURE 8/4
100100100000100000100000200000000000202020100000101000100000200000100000200000101000200200200200,
#MEASURE 4/4
1011201010222010,
100000202020200100200100100000200100200000000000,
#MEASURE 8/4
100100100000100000100000200000000000202000100000100100100100100000101010100000101010200000400000, //31
#MEASURE 4/4
1011202210112022,
100000202020200000200000100000200100200000000000,
#MEASURE 8/4
100100100000100000100000200000000000202020100000101000100000200000100000200000101000200200200200,
#MEASURE 4/4
1011201010222010,
100000202020200100200100100000200100200000000000,
#MEASURE 8/4
100100100000100000100000200000000000202020100000101000100000200000202000100000000000400000000000, //37
#GOGOEND
3021012010201220,
10002010001020001000400040001111,
1021012010211020,
1021212210414040,
1021012010201220,
10002010001020001000400040001111,
1021012010211020,
100000001000000010000000200000100100100000200000300000000000000000000000000000000000000000000000, //45
000111100000,
000111100000,
1021201010202120,
1021201012102040,
10220020002200200020201020111102,
10220020002200200020201020121222,
10220020102200201022202010222020,
100020002000100020002000100200200200100100100200000000000000000000000000600000000008000000000000, //53
#MEASURE 4/4
#GOGOSTART
3011201110222012,
100000202020200000200000100000200100200000000000,
#MEASURE 8/4
100100100000100000100000200000000000202020100000101000100000200000100000200000101000200200200200,
#MEASURE 4/4
1011201110222012,
100000202020200100200100100000200100200000000000,
#MEASURE 8/4
100100100000100000100000200000000000202000100000100100100100100000101010100000101010200000000000, //59
#MEASURE 4/4
1111222210221120,
100000202020100100200200100100200100200100200000,
1111212111212121,
101000100000200200100100200000101000200000400000,
1011201110222012,
100000202020200100200100100000200100200000000000,
#MEASURE 8/4
100100100000100000100000200000000000202020100000101000100000200000100000200000101000200000000000, //66
#GOGOEND
30014002,
#MEASURE 4/4
#GOGOSTART
100100200200100100200200100100100100202020200000,
#BARLINEOFF
#SCROLL 1.5
0440,
#GOGOEND
#BARLINEON
#MEASURE 12/4
0
#SCROLL 1
00, //70
#END

COURSE:Oni
LEVEL:9
BALLOON:20,14,7,14,16,14,16,9,7,14,16,9
SCOREINIT:600,1760
SCOREDIFF:130
#START
#MEASURE 8/4
#SCROLL 0.5
70000084,
1001201212102012,
1001201202102011,
1001201212112012,
700000000000000000000000000000000000000000000008000000200000200020002000200000000000400000000000,
3001102010011020,
100000000000000000100000100000100000200000200000500000000000000000000000000000000008000000000000,
1001102010011020,
1001121270008010, //9
1001102010011020,
100000000000000000100000100000100000200000200000500000000000000000000000000000000008000000000000,
1001102010011122,
100010001000000200200200100000000000000000000000,
1001201002012010,
100000000000000000100000200000000000100000000000300000000000300000000000600000000008000000000000,
1001201020012010,
1001202210303022, //17
700000000000000000000000000000000000000000000008000000000000200000000000200000200000000000700000,
#BARLINEOFF
00008022,
#BARLINEON
700000000000000000000000000000000000000000000008000000000000200000100000100000200000000000700000,
0000000080000022,
1020102010101202,
1010101010202120,
1022102210221202,
500000000000000000000000000000000000000000000008000000000000000000000000400000000000000000000000, //25
#MEASURE 4/4
#GOGOSTART
1110102011101020,
1110102010002000,
#MEASURE 8/4
1001221170000812,
#MEASURE 4/4
1110102011101020,
1110102010002000,
#MEASURE 8/4
100000000000000000100000200000200000100000200000500000000000000000000000000008000000200000200000, //31
#MEASURE 4/4
1110202011102020,
1110202011102010,
#MEASURE 8/4
1011221210021012,
#MEASURE 4/4
1110102011101020,
1110102011102010,
#MEASURE 8/4
1011212210021040, //37
#GOGOEND
1021102010211020,
100000000000200000100000100000100000200000200000500000000000000000000000000000000008000000000000,
1021102010211020,
1021121270008010,
1021102010211020,
100000000000200000100000100000100000200000200000500000000000000000000000000000000008000000000000,
1021102010211122,
100010001000000200200200100000000000200000000200, //45
20000000000000000000000020000222,
2002,
700000000000000000000000000000000000000000000008000000000000200000100100100000200000000000700000,
0000000080002002,
10002000100020001000100010000222,
1010101012221020,
1022102210221222,
500000000000000000000000000000000000000000000008000000000000000000000000400000000000000000000000, //53
#MEASURE 4/4
#GOGOSTART
1110102011101020,
1110102010002000,
#MEASURE 8/4
1001221170000822,
#MEASURE 4/4
1110102011101020,
1110102010002000,
#MEASURE 8/4
100000000000000000100000200000200000100000200000500000000000000000000000000008000000200000200000, //59
#MEASURE 4/4
1011202010112020,
1011201010112010,
1022202010222020,
1022102010002020,
1110102011101020,
1110102011102010,
#MEASURE 8/4
1011212210121022, //66
#GOGOEND
1022201210222012,
#GOGOSTART
#MEASURE 4/4
1110202011102020,
0440,
#GOGOEND
#MEASURE 12/4
0, //70
#END

COURSE:Hard
LEVEL:6
BALLOON:14,6,7,6,7
SCOREINIT:710,3070
SCOREDIFF:190
#START
#MEASURE 8/4
#SCROLL 0.5
700000000000000000000000000000000000080000000000,
1202,
10200220,
1000200010020020,
500000000000000000000000000000000000000000000008000000000000000000000000000000000000300000000000,
10121012,
1000111010202000,
10121012,
100000000000000000000000100000100000100000000000500000000000000000000000000000000008000000000000, //9
10121012,
1000111010202000,
10121012,
70083000,
10220022,
10223330,
10222022,
10223330, //17
20022002,
20022040,
10201120,
10201120,
1000100010111000,
1010100010111000,
1010111010101110,
500000000000000000000000000000000008000000000000200000000000200000000000400000000000000000000000, //25
#MEASURE 4/4
#GOGOSTART
1212,
#BARLINEOFF
10111000,
#BARLINEON
#MEASURE 8/4
300000000000000000100000100000000000100000000000500000000000000000000008000000000000000000000000,
#MEASURE 4/4
1212,
#BARLINEOFF
10111000,
#BARLINEON
#MEASURE 8/4
3001101070000080, //31
#MEASURE 4/4
1212,
#BARLINEOFF
10111000,
#BARLINEON
#MEASURE 8/4
3011101010022000,
#MEASURE 4/4
1212,
#BARLINEOFF
10111000,
#BARLINEON
#MEASURE 8/4
3011101010004000, //37
#GOGOEND
10121012,
1000111010202000,
10121012,
100000000000000000000000100000100000100000000000500000000000000000000000000000000008000000000000,
10121012,
1000111010202000,
10121012,
70083000, //45
2002,
2002,
10201120,
10201120,
1000100010111000,
1010100010111000,
1010111010101110,
500000000000000000000000000000000008000000000000200000000000200000000000400000000000000000000000, //53
#MEASURE 4/4
#GOGOSTART
1212,
#BARLINEOFF
10111000,
#BARLINEON
#MEASURE 8/4
300000000000000000100000100000000000100000000000500000000000000000000008000000000000000000000000,
#MEASURE 4/4
1212,
#BARLINEOFF
10111000,
#BARLINEON
#MEASURE 8/4
3001101070000080, //59
#MEASURE 4/4
1212,
#BARLINEOFF
10111010,
#BARLINEON
1212,
#BARLINEOFF
10022000,
#BARLINEON
1212,
#BARLINEOFF
10111000,
#BARLINEON
#MEASURE 8/4
3011101010004000, //66
#GOGOEND
30013001,
#MEASURE 4/4
#GOGOSTART
600000000000000000000000000000000000000000000008,
#BARLINEOFF
0440,
#GOGOEND
#BARLINEON
#MEASURE 12/4
0, //70
#END

COURSE:Normal
LEVEL:3
BALLOON:7,6,6,3,3
SCOREINIT:870,6050
SCOREDIFF:285
#START
#MEASURE 8/4
#SCROLL 0.5
700000000000000000000000000000000000080000000000,
1001,
1,
11,
500000000000000000000000000000000000000000000008000000000000000000000000000000000000000000000000,
11,
10111000,
11,
100000000000000000000000100000000000100000000000500000000000000000000000000000000008000000000000, //9
11,
10111000,
11,
600000000000000000000000000000000000000000000008000000000000000000000000000000000000000000000000,
11,
10002220,
11,
10003330, //17
700000000000000000000000000000000000000000000008000000000000000000000000000000000000000000000000,
700000000000000000000000000000000000000000000008000000000000000000000000000000000000000000000000,
1120,
1120,
10101110,
10101110,
5,
000000000000000000000000000000000000000000000008000000000000000000000000000000000000000000000000, //25
#MEASURE 4/4
#GOGOSTART
1110,
#BARLINEOFF
1110,
#BARLINEON
#MEASURE 8/4
1120,
#MEASURE 4/4
1110,
#BARLINEOFF
1110,
#BARLINEON
#MEASURE 8/4
200000000000000000000000200000000000000000000000500000000000000000000000000000000008000000000000, //31
#MEASURE 4/4
1110,
#BARLINEOFF
1110,
#BARLINEON
#MEASURE 8/4
1120,
#MEASURE 4/4
1110,
#BARLINEOFF
1110,
#BARLINEON
#MEASURE 8/4
7833, //37
#GOGOEND
11,
10111000,
11,
100000000000000000000000100000000000100000000000500000000000000000000000000000000008000000000000,
11,
10111000,
11,
600000000000000000000000000000000000000000000008000000000000000000000000000000000000000000000000, //45
2,
2,
1120,
1120,
10101110,
10101110,
5,
000000000000000000000000000000000000000000000008000000000000000000000000000000000000000000000000, //53
#MEASURE 4/4
#GOGOSTART
1110,
#BARLINEOFF
1110,
#BARLINEON
#MEASURE 8/4
1120,
#MEASURE 4/4
1110,
#BARLINEOFF
1110,
#BARLINEON
#MEASURE 8/4
200000000000000000000000200000000000000000000000500000000000000000000000000000000008000000000000, //59
#MEASURE 4/4
1110,
#BARLINEOFF
1110,
#BARLINEON
2022,
#BARLINEOFF
22,
#BARLINEON
1110,
#BARLINEOFF
1110,
#BARLINEON
#MEASURE 8/4
7844, //66
#GOGOEND
33,
#MEASURE 4/4
#GOGOSTART
600000000000000000000000000000000000000008000000,
#BARLINEOFF
0330,
#GOGOEND
#BARLINEON
#MEASURE 12/4
0, //70
#END

COURSE:Easy
LEVEL:2
BALLOON:7,4,4,8,8,4
SCOREINIT:900,9400
SCOREDIFF:355
#START
#MEASURE 8/4
#SCROLL 0.5
700000000000000000000000000000000000080000000000,
1,
1,
11,
500000000000000000000000000000000000000000000008000000000000000000000000000000000000000000000000,
11,
1110,
11,
500000000000000000000000000000000000000000000000000000000000000000000008000000000000000000000000, //9
11,
1110,
11,
600000000000000000000000000000000000000000000008000000000000000000000000000000000000000000000000,
11,
12,
11,
13, //17
700000000000000000000000000000000000000000000008000000000000000000000000000000000000000000000000,
700000000000000000000000000000000000000000000008000000000000000000000000000000000000000000000000,
12,
12,
1110,
1110,
5,
000000000000000000000000000000000000000000000008000000000000000000000000000000000000000000000000, //25
#MEASURE 4/4
#GOGOSTART
11,
#BARLINEOFF
11,
#BARLINEON
#MEASURE 8/4
12,
#MEASURE 4/4
11,
#BARLINEOFF
11,
#BARLINEON
#MEASURE 8/4
500000000000000000000000000000000000000000000008000000000000000000000000000000000000000000000000, //31
#MEASURE 4/4
11,
#BARLINEOFF
11,
#BARLINEON
#MEASURE 8/4
12,
#MEASURE 4/4
11,
#BARLINEOFF
11,
#BARLINEON
#MEASURE 8/4
7008, //37
#GOGOEND
11,
1110,
11,
500000000000000000000000000000000000000000000000000000000000000000000008000000000000000000000000,
11,
1110,
11,
600000000000000000000000000000000000000000000008000000000000000000000000000000000000000000000000, //45
0,
0,
12,
12,
1110,
1110,
5,
000000000000000000000000000000000000000000000008000000000000000000000000000000000000000000000000, //53
#MEASURE 4/4
#GOGOSTART
11,
#BARLINEOFF
11,
#BARLINEON
#MEASURE 8/4
12,
#MEASURE 4/4
11,
#BARLINEOFF
11,
#BARLINEON
#MEASURE 8/4
500000000000000000000000000000000000000000000008000000000000000000000000000000000000000000000000, //59
#MEASURE 4/4
11,
#BARLINEOFF
11,
#BARLINEON
22,
#BARLINEOFF
20,
#BARLINEON
11,
#BARLINEOFF
11,
#BARLINEON
#MEASURE 8/4
7008, //66
#GOGOEND
33,
#MEASURE 4/4
#GOGOSTART
7008,
#BARLINEOFF
0330,
#GOGOEND
#BARLINEON
#MEASURE 12/4
0, //70
#END
