//TJADB Project
TITLE:SAMURAI ROCKET
TITLEJA:SAMURAI ROCKET
SUBTITLE:--Kohta Takahashi/RIDGE RACER Ⅴ
SUBTITLEJA:「RIDGE RACER V」より
BPM:136
WAVE:SAMURAI ROCKET.ogg
OFFSET:-1.861
DEMOSTART:63.616

COURSE:Edit
LEVEL:9
BALLOON:60
SCOREINIT:370
SCOREDIFF:80
#START
,
3,
1001001004004000,
1101101101101110,
1101101101101112,
1101101101101122,
1010100111103000,
1101101101101110,
1101101101101112,
1101101101101122,
1010100122101110,
1020021010221202,
1022102010112202,
1020021010221202,
1102110211211010,
1201201201211210,
1201201120112210,
1201201201211210,
1022102102002000,
1122101221101110,
1221101121101120,
1122101221101110,
1221221010101122,
1122101221101110,
1211011210121110,
1122101221101110,
1021121122222110,
0010120010101200,
0010120020202200,
0010120010101200,
0010120020212200,
0010120011111200,
0010120022211200,
0010120011211200,
1002102011222220,//35
#GOGOSTART
1001100110011020,
1001100110011221,
1001100110011020,
1001100112211221,
1020112010201120,
1020112010201120,
1020112010201120,
1020112011211121,
1021120112011021,
1021120112011021,
1021120112011021,
1021120112022022,
1021220122012021,
1021220122021021,
1021220122021021,
1202220222020030,
1011201110112011,
1121112111111110,
2212221222112110,//54
#GOGOEND
1000100211010121,
1020021010221202,
1022102010112202,
1020021010221202,
1202120212211010,
1020021012211210,
1202122012211020,
1020021012211210,
1202122012111000,
07000000,
00000008,
01010101,
1010101011111110,//67
#GOGOSTART
1121121211211212,
1011011011011210,
1121121121211212,
1011011011211210,
1121211212112121,
1011011211211210,
1122112121121122,
1011211211211210,//75
#GOGOEND
5000000000008022,
1000000000000022,
12121212,
1010101122112210,
0010120010101200,
0010120020202200,
0010120010101200,
0010120020212200,//83
#GOGOSTART
0010120011111200,
0010120022211200,
0010120011211200,
1002102011222220,//87
#GOGOEND
#END

COURSE:Oni
LEVEL:8
BALLOON:40
SCOREINIT:420
SCOREDIFF:100
#START
,
11111111,
30030330,
1101201011102000,
1101201011102000,
1101201011102000,
1101201011112000,
1110221011212000,
1110221011212000,
1110221011212000,
1111201011212000,
12021202,
12121202,
12021202,
1020102010221020,
12021202,
12121202,
12021202,
1020102011212000,
1010100101101000,
2020200202202000,
1010100101101000,
1010100101202000,
1010202101012220,
1010202101012220,
1010202101112000,
1001201011202000,
1010120010102200,
1010120020202200,
1010120010102200,
1010120020202200,
1020112010201120,
1020112010201120,
1020112010201120,
1001100120202000,//35
#GOGOSTART
1011100110111020,
1011100110111020,
1011100010111020,
1011100010111222,
1011100110111020,
1011100110111020,
1011100010112000,
1001100101101110,
1012120120211202,
1012120120211202,
1012120210211202,
1012120210212200,
1012120210211202,
1012120210211202,
1012120210211202,
1012120210211200,
1110201011102010,
1020102011201020,
2210202022101120,//54
#GOGOEND
1000100101101110,
1001200010012000,
1000100010012000,
1001200010012000,
10101022,
1001200010012000,
1000100010012000,
1001200010004000,
10101000,
7,
00000080,
1110111011101110,
1010111111111110,//67
#GOGOSTART
1011210110112101,
1011210111201120,
1011210110112101,
1011210111201120,
1021120112011021,
1021120112011021,
1021120112011021,
1021120112011021,//75
#GOGOEND
1011100110111020,
1011100110111020,
1011101110111020,
1010100011022210,
1010110010102200,
1010110020202200,
1010110010102200,
1010110020202200,//83
#GOGOSTART
1020112010201120,
1020112010201120,
1020112010201120,
1001100110111100,//87
#GOGOEND
#END

COURSE:Hard
LEVEL:7
BALLOON:30
SCOREINIT:360
SCOREDIFF:90
#START
,
11111111,
3000003000101110,
1001201011102000,
1001201011102000,
1001201011102000,
1001201011022000,
1010221022102000,
1010221011202000,
1010221022102000,
1101201011102000,
12021202,
12121202,
12021202,
12121202,
12021202,
12121202,
12021202,
1020102011012000,
1010100101101000,
2020200202202000,
1010100101101000,
1001101000222000,
1010100101101000,
1010100101101000,
1010101101102000,
1001201011202000,
1010110010102200,
1010110020202200,
1010110010102200,
1010110020202200,
1020111010201110,
1020111010201110,
1020111010201110,
1001100110101000,//35
#GOGOSTART
1001100110011020,
1001100110011020,
1001100110011020,
1001100020020020,
1001100110011020,
1001100110011020,
1001100110012000,
1001101101101110,
1001100110011020,
1001100110011020,
1001100110011020,
1001100020020020,
1001100110011020,
1001100110011020,
1001100110011020,
1001100110011020,
1110201011102010,
1020102011101020,
2220202022202020,//54
#GOGOEND
1000100101101110,
1001200010012000,
1000100010012000,
1001200010012000,
10101022,
1001200010012000,
1000100010012000,
1001200010004000,
1000100010001110,
7,
0008,
01010101,
1000000010000000500000000000000000000000000000000000000800000000,//67
#GOGOSTART
1011200010112000,
1011200011101110,
1011200010112000,
1011200011101110,
1021100110011020,
1021100110011020,
1021100110011020,
1021100110011020,//75
#GOGOEND
1001100110011020,
1001100110011020,
1001100110011020,
1001100020020020,
1010110010102200,
1010110020202200,
1010110010102200,
1010110020202200,//83
#GOGOSTART
1020111010201110,
1020111010201110,
1020111010201110,
1001100110001111,//87
#GOGOEND
,
,
,
#END

COURSE:Normal
LEVEL:6
BALLOON:50,50
SCOREINIT:560
SCOREDIFF:130
#START
,
1111,
30030110,
10201120,
10201120,
10201120,
10201120,
10212120,
10212120,
10212120,
10212120,
11,
1110,
11,
1110,
11,
1110,
11,
10101120,
11101010,
22202020,
11101010,
11100220,
11101010,
22202020,
11101020,
10212120,
11101120,
11102220,
11101120,
11102220,
12102020,
12102020,
12102020,
10101110,//35
#GOGOSTART
10001012,
10001012,
10001012,
10102220,
10001012,
10001012,
1012,
10101110,
10001012,
10001012,
10001012,
10102220,
10001012,
10001012,
10001012,
1100,
1212,
12101210,
22202220,//54
#GOGOEND
1000100100000000,
1212,
1110,
1212,
1110,
1212,
1110,
1214,
1110,
7,
,
,
0008,//67
#GOGOSTART
11101010,
10111000,
11101010,
10111000,
11101010,
10111000,
11101010,
10111000,//75
#GOGOEND
7,
,
,
0008,
1012,
1022,
1012,
1022,//83
#GOGOSTART
12101210,
10111000,
12101210,
1113,//87
#GOGOEND
,
,
,
#END

COURSE:Easy
LEVEL:5
BALLOON:24,24
SCOREINIT:550
SCOREDIFF:140
#START
,
11,
30030030,
1002,
1002,
1002,
1011,
1110,
1110,
1110,
1112,
11,
1110,
11,
1110,
11,
1110,
11,
1130,
11100000,
22200000
11100000,
22200000,
11100000,
11100000,
22200000,
1,
1110,
1120,
1110,
1120,
12,
12,
12,
3330,//35
#GOGOSTART
1011,
1011,
1011,
1,
1011,
1011,
11,
1,
1011,
1011,
1011,
1,
1011,
1011,
11,
1,
11,
1110,
2220,//54
#GOGOEND
1,
11,
1110,
11,
1110,
11,
1110,
11,
1110,
9,
,
00090008,
,//67
#GOGOSTART
1110,
1120,
1110,
1120,
1110,
1120,
1110,
1120,//75
#GOGOEND
9,
,
00090008,
,
11,
12,
11,
12,//83
#GOGOSTART
1110,
1120,
1110,
1130,//87
#GOGOEND
,
,
,
#END
