//TJADB Project
TITLE:Ai to Jouzai no Mori
TITLEJA:愛と浄罪の森
SUBTITLE:--Hisui
BPM:212
WAVE:Ai to Jouzai no Mori.ogg
OFFSET:-2.485
DEMOSTART:86.631

COURSE:Oni
LEVEL:10
BALLOON:10
SCOREINIT:360
SCOREDIFF:100
#START
#MEASURE 6/4
#SCROLL 0.75
101120002010201000100010,
102220002010201000100010,
101120002010201000100010,
202010202010221022112210,
3,
000011,
300000000000000000000011,
100000212122,
102220102020102220102020,
102220102020122210201020,
102220102020102220102020,
102220102011101110102020,
#BPMCHANGE 218
100000000200200200200000202020200000,
100000000200200200200000202010102020,
100000000200200200200000202020200100,
100000000000000000200000200000200200200020002000100020002000100020002000,
100000000200200200202020102020202020,
100000200200200200200000202020102020,
100020200020200022202020,
102010201020111110102020,
100010201022102000200020,
100000200200200000200000100100200000100000000000200020002000200020002000,
102220201020102220201120,
100000200200200000200000100000200000100010001000200020002000100020002000,
100010201022102000200020,
100000200200200000200000100000200000100000000000200020002000200020002000,
102220201020102220201120,
10101020202012221020
#BPMCHANGE 221
#SCROLL 0.7398190045248869
1000,
#MEASURE 5/4
#BPMCHANGE 210
#SCROLL 0.75
10202010201020202210,
10202010202010202210,
10202010201020202210,
10202010202011022020,
10202010201020202210,
10202010202011022020,
10202010201020202210,
10202010202012222222,
#MEASURE 6/4
#BPMCHANGE 203
#SCROLL 0.77
100022022020000022022020,
#MEASURE 7/4
#BPMCHANGE 204
1000220220201000220210202000,
#MEASURE 6/4
100022022020000022022020,
#MEASURE 7/4
100022022020100022021020
#BPMCHANGE 205
#SCROLL 0.7463414634146341
2220,
#GOGOSTART
#BPMCHANGE 210
#MEASURE 3/4
#SCROLL 1
101121012010,
201121012010,
102121012010,
#MEASURE 4/4
1111,
#MEASURE 3/4
101121012010,
202121012010,
101121012010,
#MEASURE 4/4
1111,
#MEASURE 3/4
101121012010,
201121012010,
102121012010,
#MEASURE 4/4
10101212,
#MEASURE 3/4
101121012010,
202121012010,
101121012010,
#MEASURE 4/4
1111,
#GOGOEND
#MEASURE 3/4
11,
101202,
101210,
708,
#GOGOSTART
#MEASURE 6/4
#SCROLL 0.75
301120101020302210302020,
301220102020302110302010,
301120101020302210302020,
301220102020302110002010,
#GOGOEND
100010102010102220201020,
100010102010102220102220,
100010102010102210221020,
100020201020201110202020,
#GOGOSTART
301120201120302210302110,
302210202210301220301120,
301220101220302110302210,
302110102110301120101220,
#GOGOEND
300022201020102220101020,
#MEASURE 5/4
10102220102020102020,
#MEASURE 6/4
300020300000400010001111,
#MEASURE 5/4
1003003030,
#BPMCHANGE 173.5
#SCROLL 0.9077809798270893
4,
#MEASURE 4/4
#BPMCHANGE 112
#SCROLL 0.9375
1,
#BPMCHANGE 114
#SCROLL 0.9210526315789473
1,
#BPMCHANGE 112
#SCROLL 0.9375
10
#BPMCHANGE 94
#SCROLL 1.1170212765957446
1
#BPMCHANGE 91.5
#SCROLL 1.1475409836065573
1,
#GOGOSTART
#BPMCHANGE 183
#SCROLL 0.860655737704918
10002222
#BPMCHANGE 207
#SCROLL 0.7608695652173914
10002222,
#BPMCHANGE 196
#SCROLL 0.8035714285714286
10221010
#BPMCHANGE 216
#SCROLL 0.7291666666666666
10221010,
#BPMCHANGE 210
#SCROLL 0.75
12221212
#BPMCHANGE 214
#SCROLL 0.735981308411215
12221212,
#GOGOEND
1,
#END

COURSE:Hard
LEVEL:8
BALLOON:6
SCOREINIT:470
SCOREDIFF:120
#START
#MEASURE 6/4
#SCROLL 0.75
112021210101,
112021210101,
112021210101,
112112112112,
3,
00011,
300000000001,
100000212122,
120102120102,
120102121210,
122102122102,
122102100212,
#BPMCHANGE 218
100222202000,
100222202000,
100222202000,
100222201010,
100222201010,
100222201010,
102202202202,
121212101022,
101210120202,
120202102020,
120202120202,
120202102020,
101210120202,
120202102020,
120202120202,
1212,
#BPMCHANGE 210
#MEASURE 5/4
10000010000020202220,
20000010000010002220,
10000010000020202220,
20000010000010022020,
10000010000020202220,
20000010000010022020,
10000010000020202220,
2001001000,
#BPMCHANGE 204
#MEASURE 6/4
#SCROLL 0.77
1,
#MEASURE 7/4
1001010,
#MEASURE 6/4
1,
#MEASURE 7/4
1001010,//40
#BPMCHANGE 210
#MEASURE 3/4
#SCROLL 1
#GOGOSTART
101020011010,
201020011010,
201020012010,
#MEASURE 4/4
1111,
#MEASURE 3/4
101020011010,
201020011010,
201020012010,
#MEASURE 4/4
1111,
#MEASURE 3/4
101020011010,
201020011010,
201020012010,
#MEASURE 4/4
10101212,
#MEASURE 3/4
101020011010,
201020011010,
201020012010,
#MEASURE 4/4
1111,//56
#MEASURE 3/4
#GOGOEND
11,
101202,
101210,
700008,//60
#MEASURE 6/4
#SCROLL 0.75
#GOGOSTART
302112300300,
301222300300,
302112300300,
301222301010,//64
#GOGOEND
301121102212,
101121102122,
101121102020,
102212201222,//68
#GOGOSTART
302112302302,
301222302302,
302112302302,
301222301010,//72
#GOGOEND
301122102212,
#MEASURE 5/4
1011221020,
#MEASURE 6/4
300300400010,
#MEASURE 5/4
1003003030,
#BPMCHANGE 141.2
#MEASURE 4/4
#SCROLL 1.12
4,
#BPMCHANGE 159.85
#MEASURE 3/4
#SCROLL 0.85
1,
#BPMCHANGE 145.41
#MEASURE 5/8
#SCROLL 0.9
,
#BPMCHANGE 143.30
1,
,
#BPMCHANGE 104.81
#MEASURE 2/4
#SCROLL 1.15
1,
#BPMCHANGE 94.34
#SCROLL 1.1
11,//83
#BPMCHANGE 198
#MEASURE 4/4
#SCROLL 0.8
#GOGOSTART
11,
#BPMCHANGE 206
#SCROLL 0.77
1111,
#BPMCHANGE 211
#SCROLL 0.75
3232,//86
#GOGOEND
3,
#END

COURSE:Normal
LEVEL:7
BALLOON:4,5
#START
#MEASURE 6/4
#SCROLL 0.75
111020110101,
111020110101,
111020110101,
1212,
3,
000011,
300000000001,
100111,
110201110201,
110201101010,
110201110201,
110201100201,
#BPMCHANGE 218
100222200000,
100222200000,
100222200000,
100222200000,
100222200000,
100222200000,
102202202202,
101010101022,
101010110201,
110201102020,
110201110201,
110201102020,
101010110201,
110201102020,
110201110201,
1212,
#BPMCHANGE 210
#MEASURE 5/4
1001000000,
0001001000,
1001000000,
0001001000,
1001000000,
0001001000,
1001000000,
0001001000,
#BPMCHANGE 204
#MEASURE 6/4
#SCROLL 0.77
1,
#MEASURE 7/4
1001010,
#MEASURE 6/4
1,
#MEASURE 7/4
1001010,//40
#BPMCHANGE 210
#MEASURE 3/4
#SCROLL 1
#GOGOSTART
102011,
202011,
202021,
#MEASURE 4/4
1111,
#MEASURE 3/4
102011,
202011,
202021,
#MEASURE 4/4
1111,
#MEASURE 3/4
102011,
202011,
202021,
#MEASURE 4/4
1111,
#MEASURE 3/4
102011,
202011,
202021,
#MEASURE 4/4
1111,//56
#MEASURE 3/4
#GOGOEND
11,
11,
11,
700008,//60
#MEASURE 6/4
#SCROLL 0.75
#GOGOSTART
300111300300,
300222300300,
300111300300,
300022300000,//64
#GOGOEND
300000200011,
100020100022,
100022102020,
78,//68
#GOGOSTART
300111300300,
300222300300,
300111300300,
300022300000,//72
#GOGOEND
300000200011,
#MEASURE 5/4
1000221020,
#MEASURE 6/4
300300400010,
#MEASURE 5/4
1003003030,
#BPMCHANGE 141.2
#MEASURE 4/4
#SCROLL 1.12
4,
#BPMCHANGE 159.85
#MEASURE 3/4
#SCROLL 0.85
1,
#BPMCHANGE 145.41
#MEASURE 5/8
#SCROLL 0.9
,
#BPMCHANGE 143.30
1,
,
#BPMCHANGE 104.81
#MEASURE 2/4
#SCROLL 1.15
1,
#BPMCHANGE 94.34
#SCROLL 1.1
11,//83
#BPMCHANGE 198
#MEASURE 4/4
#SCROLL 0.8
#GOGOSTART
11,
#BPMCHANGE 206
#SCROLL 0.77
1111,
#BPMCHANGE 211
#SCROLL 0.75
3232,//86
#GOGOEND
3,
#END

COURSE:Easy
LEVEL:5
BALLOON:6,3,5
#START
#MEASURE 6/4
#SCROLL 0.75
1,
1,
1,
1212,
3,
000011,
3,
100111,
1212,
100200101010,
1212,
1212,
#BPMCHANGE 218
12,
1220,
12,
1220,
12,
1220,
1222,
700008,
101010100200,
100200101010,
1212,
100200101010,
101010100200,
100200101010,
1212,
1212,
#BPMCHANGE 210
#MEASURE 5/4
1001000000,
0001001000,
1001000000,
0001001000,
1001000000,
0001001000,
1001000000,
0001001000,
#BPMCHANGE 204
#MEASURE 6/4
#SCROLL 0.77
1,
#MEASURE 7/4
1001010,
#MEASURE 6/4
1,
#MEASURE 7/4
1001010,//40
#BPMCHANGE 210
#MEASURE 3/4
#SCROLL 1
#GOGOSTART
101,
101,
1,
#MEASURE 4/4
1111,
#MEASURE 3/4
101,
101,
1,
#MEASURE 4/4
1111,
#MEASURE 3/4
101,
101,
1,
#MEASURE 4/4
1111,
#MEASURE 3/4
101,
101,
1,
#MEASURE 4/4
1111,//56
#MEASURE 3/4
#GOGOEND
1,
1,
11,
700008,//60
#MEASURE 6/4
#SCROLL 0.75
#GOGOSTART
3033,
3033,
3033,
33,//64
#GOGOEND
300201,
101101,
101122,
78,//68
#GOGOSTART
3033,
3033,
3033,
33,//72
#GOGOEND
300201,
#MEASURE 5/4
10212,
#MEASURE 6/4
300300400010,
#MEASURE 5/4
1003003030,
#BPMCHANGE 141.2
#MEASURE 4/4
#SCROLL 1.12
4,
#BPMCHANGE 159.85
#MEASURE 3/4
#SCROLL 0.85
1,
#BPMCHANGE 145.41
#MEASURE 5/8
#SCROLL 0.9
,
#BPMCHANGE 143.30
1,
,
#BPMCHANGE 104.81
#MEASURE 2/4
#SCROLL 1.15
1,
#BPMCHANGE 94.34
#SCROLL 1.1
11,//83
#BPMCHANGE 198
#MEASURE 4/4
#SCROLL 0.8
#GOGOSTART
11,
#BPMCHANGE 206
#SCROLL 0.77
1111,
#BPMCHANGE 211
#SCROLL 0.75
3232,//86
#GOGOEND
3,
#END
