//TJADB Project
TITLE:Yo~i-don!
TITLEJA:よーいドン!
SUBTITLE:--Rikuna Yono feat. Kiddish & marino
SUBTITLEJA:feat. Kiddish
BPM:194
WAVE:Yoi-don!.ogg
OFFSET:-1.339
DEMOSTART:36.583

COURSE:Oni
LEVEL:10
BALLOON:7
SCOREINIT:410
SCOREDIFF:105
#START
2011102010222222,
1010200011102010,
0010200011102001,
1010200011102010,
0010400030122022,
1010200011102010,
0010200011102001,
1010200011102000,
1111102222201122,
1010200011102010,
0010200011102001,
1010200011102010,
4011104010111111,
20000303,
0010200011102000,
4011104021101040,
0010104010122022,
11002100,
11002120,
11002100,
1010000020102002,
1121,
1000100020002002,
1121,
1000100020002002,
1111,
1111,
1111,
#MEASURE 1/32
#BPMCHANGE 6.0625
#SCROLL 32
2,
#GOGOSTART
#MEASURE 4/4
#BPMCHANGE 194
#SCROLL 1
3000200112101020,
1110201112102020,
1010200112101020,
1110201120111222,
1010200112101020,
1110201112102020,
#GOGOEND
1000200011102010,
000100000000300030003000,
#GOGOSTART
4000201120102010,
2011201020112010,
2011201022102010,
2011201020111111,
2010201120102110,
2011201022101111,
2011201120112010,
#GOGOEND
500000000000000000000000000000000000000008000000,
#GOGOSTART
33304440,
33334440,
33304440,
33334440,
333444,
300300300300400040004000,
1110222011112220,
1110222011112220,
#GOGOEND
0000300012102010,
0010200012102002,
1010200012102011,
2211222211112222,
1012200012102010,
0010200012102000,
1112221122121212,
1221221020122210,
3120,
1021,
12,
11000020,
3120,
1021,
12,
11000020,
31,
11,
11,
#MEASURE 1/32
#BPMCHANGE 6.0625
#SCROLL 32
,
#GOGOSTART
#MEASURE 4/4
#BPMCHANGE 194
#SCROLL 1
1111111111111111,
1111111111111111,
2121211121212111,
2121212121212111,
2221222122222221,
2221222170000000,
#GOGOEND
#BARLINEOFF
80000004,
#BARLINEON
000400000000300030003000,
#GOGOSTART
4000201120102010,
2011201020112010,
2011201022102010,
2011201020111111,
2010201121102111,
2011211022112111,
#GOGOEND
222111,
444333,
#BARLINEOFF
#MEASURE 1/64
#BPMCHANGE 12.125
#SCROLL 16
,
#GOGOSTART
#BARLINEON
#MEASURE 3/4
#BPMCHANGE 194
#SCROLL 1
111111111111,
#MEASURE 4/4
1111111111111111,
2111211121112111,
2211221122112211,
2221222122212221,
2222222222222222,
#GOGOEND
2400,
#END

COURSE:Hard
LEVEL:7
BALLOON:7,3,3,7,5
SCOREINIT:410
SCOREDIFF:100
#START
1011102000111000,
11201121,
0010200011102000,
11201121,
0010200020111000,
11201121,
0010200011102000,
11201125,
000000000000000000000000000000000008000000000000,
11201121,
0010200011102000,
11201121,
2000102000101110,
20000303,
0010200011102000,
40120112,
0010102000111000,
32,
12,
12,
11002120,
3121,
1022,
3121,
1022,
3,
,
1,
#BPMCHANGE 24.25
#MEASURE 1/8
#SCROLL 8
2,//29
#BPMCHANGE 194
#MEASURE 4/4
#SCROLL 1
#GOGOSTART
5,
000000000008000000000000100100100000200000100000,
5,
000000000008000000000000100100100000100000200000,
6,
000000000000000000000000000008000000000000000000,//35
#GOGOEND
10201121,
000100000000300030003000,//37
#GOGOSTART
40212020,
2010200020111000,
20212021,
2000201020111000,
21212021,
2010200011102000,
41404140,//44
#GOGOEND
7008,//45
#GOGOSTART
33303330,
33333330,
33303330,
33333330,
333333,
300300300300300030003000,
7878,
7008,//53
#GOGOEND
00301121,
0010200011102000,
11201125,
000000000000000000000000000000000008000000000000,
30201121,
0010200011102000,
1110101000111000,
1020201000222000,
3120,
12,
12,
11000020,
3120,
12,
12,
11000020,
3,
,
1,
#BPMCHANGE 24.25
#MEASURE 1/8
#SCROLL 8
,//73
#BPMCHANGE 194
#MEASURE 4/4
#SCROLL 1
#GOGOSTART
1110100011101000,
1110101011101000,
1110100011101000,
1110101011101000,
1110101011101010,
1110111070000000,//79
#BARLINEOFF
#GOGOEND
80000004,
#BARLINEON
000400000000300030003000,//81
#GOGOSTART
40212020,
2010200020111000,
20212021,
2000201020111000,
21212021,
2010200011102000,//87
#GOGOEND
111111,
333333,
#BPMCHANGE 24.25
#MEASURE 1/32
#SCROLL 8
#BARLINEOFF
,//90
#BPMCHANGE 194
#MEASURE 3/4
#SCROLL 1
#GOGOSTART
#BARLINEON
300011101010,
#MEASURE 4/4
1110101011101000,
1110101011101010,
1110101011101000,
1110101011101010,
1110111011101110,//96
#GOGOEND
3,
,
,
,
#END

COURSE:Normal
LEVEL:6
BALLOON:5,6,6,5,3,3,7,6,3
#START
7008,
10111001,
01010200,
10110107,
0008,
10111001,
01020000,
10110025,
000000000000000000000000000000000008000000000000,
10111001,
01010200,
10110107,
0008,
40000303,
01010200,
10110100,
20220200,
32,
12,
12,
1002,
32,
12,
12,
1002,
3,
,
1,
#BPMCHANGE 24.25
#MEASURE 1/8
#SCROLL 8
2,//29
#BPMCHANGE 194
#MEASURE 4/4
#SCROLL 1
#GOGOSTART
5,
000000000008000000000000100000000000000000100000,
5,
000000000008000000000000300000000000000000300000,
6,
000000000000000000000000000008000000000000000000,//35
#GOGOEND
10001102,
000200000000300030003000,//37
#GOGOSTART
30111010,
20111020,
20111010,
20111020,
10111010,
11102020,
33,//44
#GOGOEND
7008,//45
#GOGOSTART
11101110,
11111110,
11101110,
11111110,
111111,
100100100100100010001000,
7878,
7008,//53
#GOGOEND
00301001,
01010200,
10110207,
0008,
30111001,
01010200,
10110100,
20220200,
12,
12,
12,
1002,
12,
12,
12,
1002,
3,
,
1,
#BPMCHANGE 24.25
#MEASURE 1/8
#SCROLL 8
,//73
#BPMCHANGE 194
#MEASURE 4/4
#SCROLL 1
#GOGOSTART
11101110,
11111110,
11101110,
11111110,
11111111,
11117000,//79
#BARLINEOFF
#GOGOEND
80000004,
#BARLINEON
000400000000300030003000,//81
#GOGOSTART
30111010,
20111020,
20111010,
20111020,
10111010,
11102020,//87
#GOGOEND
111100,
111100,
#BPMCHANGE 24.25
#MEASURE 1/32
#SCROLL 8
#BARLINEOFF
,//90
#BPMCHANGE 194
#MEASURE 3/4
#SCROLL 1
#GOGOSTART
#BARLINEON
301110,
#MEASURE 4/4
11111110,
11101110,
11111110,
11111111,
11111111,//96
#GOGOEND
3,
,
,
,
#END

COURSE:Easy
LEVEL:4
BALLOON:4,8,45,5,37,8,37
#START
7008,
10001001,
01010000,
10010105,
000000000000000000000000000000000000000000000008,
00001001,
01010000,
5,
000000000000000000000000000008000000000000000000,
10001001,
01010000,
10010105,
000000000000000000000000000008000000000000000000,
30000101,
00020200,
5,
000000000000000000000000000008000000000000000000,
1,
11,
1,
12,
1,
11,
1,
12,
3,
,
1,
#BPMCHANGE 24.25
#MEASURE 1/8
#SCROLL 8
2,//29
#BPMCHANGE 194
#MEASURE 4/4
#SCROLL 1
#GOGOSTART
5,
000008000000000000000000100000000000000000000000,
5,
000008000000000000000000300000000000000000000000,
6,
000000000000000000000000000008000000000000000000,//35
#GOGOEND
10001002,
02003000,//37
#GOGOSTART
3333,
3022,
3333,
3,
7,
0800,
33,//44
#GOGOEND
33,//45
#GOGOSTART
9,
,
,
,
,
09,
,
8,//53
#GOGOEND
00301001,
01010000,
10010107,
0008,
10001001,
01010000,
5,
000000000000000000000000000008000000000000000000,
11,
1,
11,
2,
11,
1,
11,
2,
3,
,
1,
#BPMCHANGE 24.25
#MEASURE 1/8
#SCROLL 8
,//73
#BPMCHANGE 194
#MEASURE 4/4
#SCROLL 1
#GOGOSTART
7,
,
,
,
,
,//79
#BARLINEOFF
#GOGOEND
80000004,
#BARLINEON
04003000,//81
#GOGOSTART
3333,
3022,
3333,
3,
7,
0800,//87
#GOGOEND
3,
3,
#BPMCHANGE 24.25
#MEASURE 1/32
#SCROLL 8
#BARLINEOFF
,//90
#BPMCHANGE 194
#MEASURE 3/4
#SCROLL 1
#GOGOSTART
#BARLINEON
9,
#MEASURE 4/4
,
,
,
0009,
,//96
#GOGOEND
8,
,
,
,
#END
