//TJADB Project
TITLE:Sayonara Elegy
TITLEJA:さよならエレジー
SUBTITLE:--Masaki Suda/Todome no Kiss
BPM:155
WAVE:Sayonara Elegy.ogg
OFFSET:-1.814
DEMOSTART:64.136

COURSE:Oni
LEVEL:8
SCOREINIT:600
SCOREDIFF:140
#START
20202222,
0020202000202022,
20202222,
02220220,
10202221,
0020201000202022,
10202221,
0010202222111110,
#GOGOSTART
3000200211102010,
0010201000112010,
1000200211102010,
0010201000102211,
1000200211102010,
0010201000112010,
1000200211102010,
0010201000112200,
#GOGOEND
10012212,
10010121,
10211022,
10010110,
10012212,
10010121,
12211212,
1000001000201110,
3000201110102020,
10210121,
1000201020112020,
10210120,
1000201110102020,
10210121,
1011201020112020,
1010200211102022,
10211021,
11211020,
500000000000000000000000000000000008000000000000,
1000201110201022,
10211021,
12211020,
100000000000200000100000500000000000000008000000,
44144144,
,
#GOGOSTART
3000201110112020,
1000201110112010,
1011201020112020,
1000201110102010,
1000201110112020,
1000222210102011,
1000221110102022,
1010400211101111,
1000201110112020,
1000201110112010,
1011201020112020,
1000201110102010,
1000201110112020,
1000222210102011,
1000221110102022,
1010400211111110,
3000200211102010,
0010201000112010,
1000200211102010,
0010201000102211,
1000200211102010,
0010201000112010,
1000200211102010,
0010201110112220,
#GOGOEND
20202222,
0020202000202022,
2,
#END

COURSE:Hard
LEVEL:5
BALLOON:23,23
SCOREINIT:570
SCOREDIFF:160
#START
,
,
,
,
20202222,
02220220,
20202222,
000000500000000000000000000000000000000008000000,
#GOGOSTART
30201121,
01210120,
10201121,
01210120,
30201121,
01210120,
7,
0008,//16
#GOGOEND
10010220,
10010220,
10211022,
10010110,
10010220,
10010220,
10211022,
10010210,
30210120,
10210121,
10211022,
10210120,
10210120,
10210121,
10221122,
10201222,
10211020,
11211020,
500000000000000000000000000000000008000000000000,
,
10211020,
11211020,
500000000000000000000000000000000000000008000000,
33033033,
,//41
#GOGOSTART
30112211,
10201121,
10221122,
10201121,
10112211,
00333044,
00333044,
300000000000400000000000600000000000000008000000,
30112211,
10201121,
10221122,
10201121,
10112211,
00333044,
00333044,
300000000000400000000000600000000000000008000000,
30201121,
01210120,
10201121,
01210120,
30201121,
01210120,
7,
0008,//65
#GOGOEND
20202222,
02220220,
2,
,
#END

COURSE:Normal
LEVEL:4
BALLOON:15,15
#START
,
,
,
,
1,
,
1,
000000500000000000000000000000000008000000000000,//8
#GOGOSTART
30101001,
00010000,
10101001,
00010000,
30101001,
00010000,
7,
0008,//16
#GOGOEND
10010110,
10010110,
10111011,
,
10010110,
10010110,
10111022,
,
30010110,
10010110,
10111011,
,
10010110,
10010110,
10111022,
,
1111,
1122,
500000000000000000000000000000000008000000000000,
,
1111,
1122,
500000000000000000000000000000000008000000000000,
33033033,
,//41
#GOGOSTART
10101011,
10101011,
10102022,
2,
10101111,
00330033,
00330044,
,
10101011,
10101011,
10102022,
2,
10101111,
00330033,
00330044,
,
30101001,
00010000,
10101001,
00010000,
30101001,
00010000,
9,
00090080,//65
#GOGOEND
,
,
1,
,
#END

COURSE:Easy
LEVEL:3
BALLOON:11,13
#START
,
,
,
,
1,
,
1,
,//8
#GOGOSTART
30001001,
,
10001001,
,
30001001,
,
7,
0008,//16
#GOGOEND
1,
1,
1011,
,
1,
1,
1011,
,
3,
1,
1011,
,
1,
1,
1011,
,
11,
22,
500000000000000000000000000000000008000000000000,
,
11,
22,
500000000000000000000000000000000000000008000000,
,
,//41
#GOGOSTART
3011,
,
1022,
,
1011,
0303,
0303,
,
3011,
,
1022,
,
1011,
0303,
0303,
,
30001001,
,
10001001,
,
30001001,
,
9,
00090080,//65
#GOGOEND
,
,
1,
,
#END
