//TJADB Project
TITLE:Niji
TITLEJA:虹
SUBTITLE:--Aqua Timez/Gokusen
BPM:126.9
WAVE:Niji.ogg
OFFSET:-2.086
DEMOSTART:62.789

COURSE:Oni
LEVEL:6
BALLOON:16,18
SCOREINIT:860
SCOREDIFF:243
#START
100000000000000000200000000000200000000000200000,
#BPMCHANGE 128
100000000000000000100000000000200000000000200000,
100000200000000000200000000000200000000000200000,
#BPMCHANGE 128.89
100000200000000000200000000000200000100000200000,
#BPMCHANGE 128
100000000000100000000000100000000000100000000000,
100000000000100000000000100000000000100000200000,
000000200000700000000000000000000000000000000000,
#BPMCHANGE 128.23
000000000000000000000000000000000800000000000000,
#BPMCHANGE 128
300000000000200000000000100000100000200000100100,
100000000000200000000000100000200000200000000000,
100000000000200000000000100000100000200000100100,
100000000000200000000000100000200000200000000000,
300000000000200000000000100000100000200000100100,
100000000000200000000000100000200000200000000000,
100000000000200000000000100000100000200000100100,
100000000000200000000000100000200200200000000000,
100000200000000000200000000000200000000000200000,
100000200000000000200000100000200000200000000000,
100000200000000000200000000000200000000000200000,
100000200000000000200000100000200000200000000000,
100000200000000000200000000000200000000000200000,
100000200000000000200000100000200000200000000000,
100000200000000000200000000000200000000000200000,
100000200000000000200000100000200000100100100000,
100000000000200000100000100100100000200000000000,
100000200000000000200000100000200000200000100100,
100000000000200000100000100100100000200000100000,
100100100000200000100000000000200000200000100000,
100000000000200000100000100100100000200000100000,
100100100000200000100000200000200000000000100000,
100000000000200000100000000000200000000000300000,
000000300000000000300000000000300000000000600000,
000000000800000000100000100000200000100100200000,
#GOGOSTART
100000200000100100200000100000200000100100200000,
100000200000000000100000100000200000100100200000,
100000200000100100200000100000200000100100200000,
100000100000000000100100100000200000200000100000,
100100100000200000100000100100100000200000100000,
100100100000200000100000100100100000200000100000,
100100100000500000000000000000000000000000000000,
000000000800000000100000100000200000100100200000,
100000200000100100200000100000200000100100200000,
100000200000000000100000100000200000100100200000,
100000200000100100200000100000200000100100200000,
100000100000000000100100100000200000200000300000,
100100100000200000100000100100100000200000100000,
100100100000200000100000100100200000200000500000,
000000000000000000000000000000000000000000000800,
000000000000000000100000000000200000200000100000,
100000200000100100100000100000200000100100200000,
100000200000100100200000000000300000000000300000,
000000300000700000000000000000000000000000000000,
000000000000000000000000000000000000000800000000,
#GOGOEND
#END

COURSE:Hard
LEVEL:2
BALLOON:14,14,14,14,14,14,14
SCOREINIT:770
SCOREDIFF:223
#START
#BPMCHANGE 128
1011,
1011,
1011,
1,
11,
1011,
7,
00000800,
#SECTION
#BRANCHSTART p,35,50
#N
1021,
1210,
1021,
1210,
#E
10210120,
10200220,
10210120,
10200220,
#M
10210121,
01201220,
10210121,
01201220,
#SECTION
#BRANCHSTART p,35,50
#N
1021,
1210,
1021,
1200,
#E
10210120,
10200220,
10210120,
10200001,
#M
10210121,
01201220,
10210121,
0010200010111010,
#SECTION
#BRANCHSTART p,35,50
#N
1011,
1100,
1011,
1002,
#E
1212,
10200220,
1212,
11000220,
#M
11210121,
01201220,
11210121,
01201220,
#SECTION
#BRANCHSTART p,35,50
#N
1011,
1100,
1011,
1002,
#E
1212,
10200220,
1212,
11000000,
#M
11210121,
01201220,
11210121,
12012110,
#SECTION
#BRANCHSTART p,35,50
#N
1012,
1002,
1012,
1102,
#E
10210120,
11000220,
10210120,
10110220,
#M
10210120,
11021220,
10210120,
10110220,
#SECTION
#BRANCHSTART p,35,50
#N
1012,
10001100,
11,
7,
00000800,
#E
10210120,
11001100,
11,
7,
00000800,
#M
10210120,
11001100,
11,
7,
00000800,
#GOGOSTART
#SECTION
#BRANCHSTART p,35,50
#N
3212,
1033,
3212,
1,
1211,
1211,
500000000000000000000000000000000000000000000008,
,
#E
30201120,
10030220,
1212,
1,
10210121,
01210121,
500000000000000000000000000000000000000000000008,
00030220,
#M
1010001110202000,
1010001110202000,
1010001110202000,
1010001110202000,
10210121,
01210121,
500000000000000000000000000000000000000000000008,
00030220,
#SECTION
#BRANCHSTART p,35,50
#N
3012,
1033,
3012,
1,
1212,
1212,
500000000000000000000000000000000000000000000008,
0011,
#E
30201120,
10030220,
10201120,
1,
10210121,
01210121,
500000000000000000000000000000000000000000000008,
00010220,
#M
1010001110202000,
1010001110202000,
1010001110202000,
1010001110202000,
10210121,
12102210,
500000000000000000000000000000000000000000000008,
00010220,
#SECTION
#BRANCHSTART p,35,50
#N
1212,
1233,
7,
00000800,
#E
10210121,
01210121,
7,
00000800,
#M
10210121,
01210221,
7,
00000800,
#BRANCHEND
#GOGOEND
#END

COURSE:Normal
LEVEL:1
BALLOON:10,10,10
SCOREINIT:910
SCOREDIFF:378
#START
#BPMCHANGE 128
100000000000000000000000100000000000100000000000,
100000000000000000000000100000000000100000000000,
100000000000000000000000100000000000100000000000,
100000000000000000000000000000000000000000000000,
100000000000000000000000100000000000000000000000,
100000000000000000000000100000000000100000000000,
700000000000000000000000000000000000000000000000,
000000000000000000000000000800000000000000000000,
100000000000000000000000200000000000100000000000,
100000000000200000000000100000000000000000000000,
100000000000000000000000200000000000100000000000,
100000000000200000000000100000000000000000000000,
100000000000000000000000200000000000100000000000,
100000000000200000000000100000000000000000000000,
100000000000000000000000200000000000100000000000,
100000000000200000000000000000000000000000000000,
100000000000000000000000100000000000100000000000,
100000000000100000000000000000000000000000000000,
100000000000000000000000100000000000100000000000,
100000000000000000000000000000000000200000000000,
100000000000000000000000100000000000100000000000,
100000000000100000000000000000000000000000000000,
100000000000000000000000100000000000100000000000,
100000000000000000000000000000000000200000000000,
100000000000000000000000100000000000200000000000,
100000000000000000000000000000000000200000000000,
100000000000000000000000100000000000200000000000,
100000000000100000000000000000000000200000000000,
100000000000000000000000100000000000200000000000,
100000000000000000000000100000100000000000000000,
100000000000000000000000100000000000000000000000,
700000000000000000000000000000000000000000000000,
000000000000000000000000000800000000000000000000,
#GOGOSTART
300000000000200000000000100000000000200000000000,
100000000000000000000000300000000000300000000000,
300000000000200000000000100000000000200000000000,
100000000000000000000000000000000000000000000000,
100000000000200000000000100000000000100000000000,
100000000000200000000000100000000000100000000000,
500000000000000000000000000000000000000000000800,
000000000000000000000000000000000000000000000000,
300000000000000000000000100000000000200000000000,
100000000000000000000000100000000000100000100000,
300000000000000000000000100000000000200000000000,
100000000000000000000000100000100000100000000000,
100000000000200000000000100000000000200000000000,
100000000000200000000000100000000000200000000000,
500000000000000000000000000000000000000000000800,
000000000000000000000000100000000000100000000000,
100000000000200000000000100000000000200000000000,
100000000000200000000000300000000000300000000000,
700000000000000000000000000000000000000000000000,
000000000000000000000000000800000000000000000000,
#GOGOEND
#END

COURSE:Easy
LEVEL:3
BALLOON:10,10,10
SCOREINIT:1130
SCOREDIFF:738
#START
100000000000000000000000100000000000100000000000,
#BPMCHANGE 128
100000000000000000000000100000000000000000000000,
100000000000000000000000100000000000100000000000,
#BPMCHANGE 128.89
100000000000000000000000000000000000000000000000,
#BPMCHANGE 128
100000000000000000000000100000000000000000000000,
100000000000000000000000100000000000100000000000,
700000000000000000000000000000000000000000000000,
#BPMCHANGE 128.23
000000000000000000000000000008000000000000000000,
#BPMCHANGE 128
100000000000000000000000000000000000000000000000,
100000000000000000000000100000000000100000000000,
100000000000000000000000000000000000000000000000,
100000000000000000000000100000000000100000000000,
100000000000000000000000000000000000000000000000,
100000000000000000000000100000000000100000000000,
100000000000000000000000000000000000000000000000,
100000000000000000000000100000000000100000000000,
100000000000000000000000100000000000000000000000,
100000000000000000000000000000000000000000000000,
100000000000000000000000100000000000000000000000,
100000000000000000000000000000000000000000000000,
100000000000000000000000100000000000000000000000,
100000000000000000000000000000000000000000000000,
100000000000000000000000100000000000000000000000,
100000000000000000000000000000000000000000000000,
100000000000000000000000000000000000000000000000,
100000000000100000000000100000000000000000000000,
100000000000000000000000000000000000000000000000,
100000000000100000000000100000000000000000000000,
100000000000000000000000000000000000000000000000,
100000000000100000000000100000000000000000000000,
100000000000000000000000100000000000000000000000,
700000000000000000000000000000000000000000000000,
000000000000000000000000000008000000000000000000,
#GOGOSTART
300000000000000000000000100000000000100000000000,
100000000000000000000000000000000000000000000000,
300000000000000000000000100000000000100000000000,
100000000000000000000000000000000000000000000000,
100000000000000000000000200000000000000000000000,
100000000000000000000000200000000000000000000000,
500000000000000000000000000000000000000000000080,
000000000000000000000000000000000000000000000000,
300000000000000000000000100000000000100000000000,
100000000000000000000000000000000000000000000000,
300000000000000000000000100000000000100000000000,
100000000000000000000000000000000000000000000000,
100000000000000000000000200000000000000000000000,
100000000000000000000000200000000000000000000000,
500000000000000000000000000000000000000000000080,
000000000000000000000000100000000000100000000000,
100000000000000000000000100000000000000000000000,
100000000000000000000000300000000000300000000000,
7,
00000800,
#GOGOEND
#END
