//TJADB Project
TITLE:D-Zettai! SAMURAI in the Rain
TITLEJA:D絶対!SAMURAIインザレイン
SUBTITLE:--MURATATAM & Ladybeard
SUBTITLEJA:むらたたむ&レディビアード
BPM:220
WAVE:D-Zettai! SAMURAI in the Rain.ogg
OFFSET:-1.327
DEMOSTART:48.781

COURSE:Edit
LEVEL:10
BALLOON:14
SCOREINIT:330
SCOREDIFF:80
#START
#GOGOSTART
#MEASURE 5/8
101
#SCROLL 2
40,
#SCROLL 1
111010
#SCROLL 2
4000,
#SCROLL 1
111010
#SCROLL 2
4000,
#GOGOEND
#MEASURE 2/4
#SCROLL 1
30303011,
#GOGOSTART
#MEASURE 5/8
211010
#SCROLL 2
4000,
#SCROLL 1
211010
#SCROLL 2
4000,
#SCROLL 1
211010
#SCROLL 2
4000,
#GOGOEND
#MEASURE 2/4
#SCROLL 1
20112000,
#GOGOSTART
#MEASURE 5/8
211110
#SCROLL 2
4000,
#SCROLL 1
221110
#SCROLL 2
4000,
#SCROLL 1
222110
#SCROLL 2
4000,
#GOGOEND
#MEASURE 2/4
#SCROLL 1
30303011,
#GOGOSTART
#MEASURE 5/8
222210
#SCROLL 2
4000,
#SCROLL 1
222110
#SCROLL 2
4000,
#SCROLL 1
221110
#SCROLL 2
4000,
#MEASURE 2/4
#SCROLL 1
21112222,
#MEASURE 4/4
1000201011102011,
1210202211102022,
1000201011102011,
1210202211202212,
1010201011102011,
100100100000200000100000101010100000200200100100,
1010201011102011,
2211112211112000,
#GOGOEND
10200120,
10201120,
10200120,
1000200000102222,
#GOGOSTART
1010201011102011,
100100100000200000100000101010100000200200100100,
1010201011102010,
2211101110112000,
#GOGOEND
10200120,
10201120,
10200120,
1000200000102222,
#GOGOSTART
1010201011102011,
100100100000200000100000101010100000200200100100,
1010201011102011,
2211112211112000,
#GOGOEND
10201120,
1000200011102000,
10211120,
1000201011102010,
1000201120102011,
2010201122102000,
4011104011104010,
4012104012104010,
2211112211111011,
2210112000000000,
#GOGOSTART
3000202210102011,
1011201000102022,
1010202210102022,
100100100200200000100000000000101010200000100000,
1000202210102011,
1011201000102022,
1010202210102212,
1010221020102000,
1010201110102012,
1110201210102010,
2011102011104010,
4012102012104010,
2000221122111111,
2010001040002001,
#GOGOEND
500000000000000000000000000000000000000008000000,
1212121200101122,
1000201222102000,
1000201212102000,
1110201112102000,
1110201211102000,
1121201020112211,
100200200200100100100200500000000000000008000000,
1111222211112222,
1111222211112222,
1122112211221122,
1122112212121000,
500000000000000008000000200200100100200200100100,
2211221122112211,
1221122112211221,
500000000000000000000000000000000000000008000000,
3,
10010000,
3,
100000100100100000300000000000101010100000000000,
1111,
10111111,
11111111,
11111111,
1110101011101010,
1110111011101110,
200000111100100100200000,
200000100222200100100200,
30333333,
#SCROLL 4.55
7008,
#GOGOSTART
#SCROLL 1
3000202210102011,
1011201000102022,
1010202210102022,
100100100200200000100000000000101010200000100000,
1000202210102011,
1011201000102022,
1010202210102212,
1010221020102000,
1010201110102012,
1110201210102010,
2011102011104010,
4012102012104010,
2000221122111111,
2010001040002022,
#MEASURE 5/8
111010
#SCROLL 2
4000,
#SCROLL 1
111010
#SCROLL 2
4000,
#SCROLL 1
111010
#SCROLL 2
4000,
#GOGOEND
#MEASURE 2/4
#SCROLL 1
30303011,
#GOGOSTART
#MEASURE 5/8
211010
#SCROLL 2
4000,
#SCROLL 1
211010
#SCROLL 2
4000,
#SCROLL 1
211010
#SCROLL 2
4000,
#GOGOEND
#MEASURE 2/4
#SCROLL 1
20112000,
#GOGOSTART
#MEASURE 5/8
211110
#SCROLL 2
4000,
#SCROLL 1
221110
#SCROLL 2
4000,
#SCROLL 1
222110
#SCROLL 2
4000,
#GOGOEND
#MEASURE 2/4
#SCROLL 1
30303011,
#GOGOSTART
#MEASURE 5/8
222210
#SCROLL 2
4000,
#SCROLL 1
222110
#SCROLL 2
4000,
#SCROLL 1
221110
#SCROLL 2
4000,
#GOGOEND
#MEASURE 2/4
#SCROLL 1
3334,
#END

COURSE:Oni
LEVEL:8
BALLOON:15,9
SCOREINIT:440
SCOREDIFF:108
#START
#MEASURE 5/8
#GOGOSTART
10140,
10140,
10140,//3
#MEASURE 2/4
#SCROLL 1
#GOGOEND
11102010,//4
#MEASURE 5/8
#GOGOSTART
10140,
10140,
10140,//7
#MEASURE 2/4
#SCROLL 1
#GOGOEND
11102000,//8
#MEASURE 5/8
#GOGOSTART
11140,
11140,
11140,//11
#MEASURE 2/4
#SCROLL 1
#GOGOEND
11102010,//12
#MEASURE 5/8
#GOGOSTART
11140,
11140,
11140,
#MEASURE 2/4
11102020,
#MEASURE 4/4
1000201010002011,
11211020,
1000201010002011,
11211020,
12121221,
21211020,
12121221,
2010201110004000,//24
#GOGOEND
10201120,
10210120,
10201120,
10210120,//28
#GOGOSTART
12121221,
21121010,
12121221,
2010102220003000,//32
#GOGOEND
10201120,
10210120,
10201120,
10210120,//36
#GOGOSTART
21212112,
12122010,
21212112,
1020102220003000,//40
#GOGOEND
10201120,
1000200011102000,
10210120,
1000201011102000,
7,
80001120,
41121121,
41121121,
600000000000000000000000000008000000000000000000,
33030000,//50
#GOGOSTART
1000201011102010,
1110201000002020,
1000201011102010,
2220201000002020,
1000201011102010,
1110201000102020,
1000201011102050,
000000000000000000000008000000000000200000200000,
10211022,
10211022,
1022201000201010,
2011102000102010,
1022201000003000,
4444,//64
#GOGOEND
30210120,
10210120,
10211120,
10211120,
11211120,
11211120,
1110201010102010,
100100100000200000100000500000000000000008000000,
1110201011102010,
1110201020102000,
1110201011102010,
1110201020102000,
500000000000000008000000100100100000100000100000,
1110101011101010,
1110101011101010,
7008,
3,
10010000,
3,
1110103000000000,
1111,
11010010,
10101115,
000000000000000008000000000000000000100000100000,
10111011,
10111010,
1110202000001000,
1110102000001000,
11120020,
600000000000000000000000000000000008000000000000,//94
#SCROLL 1
#GOGOSTART
1000201011102010,
1110201000002020,
1000201011102010,
2220201000002020,
1000201011102010,
1110201000102020,
1000201011102050,
000000000000000008000000000000000000200000200000,
10211022,
10211022,
1022201000201010,
2011102000102010,
1022201000003030,
4444,//108
#MEASURE 5/8
30140,
10140,
10140,//111
#MEASURE 2/4
#GOGOEND
11102010,//112
#MEASURE 5/8
#GOGOSTART
10140,
10140,
10140,//115
#MEASURE 2/4
#GOGOEND
11102000,//116
#MEASURE 5/8
#GOGOSTART
11140,
11140,
11140,//119
#MEASURE 2/4
#GOGOEND
11102010,//120
#MEASURE 5/8
#GOGOSTART
11140,
11140,
11140,//123
#MEASURE 2/4
#GOGOEND
3334,
#END

COURSE:Hard
LEVEL:6
BALLOON:11,17,38
SCOREINIT:450
SCOREDIFF:120
#START
#MEASURE 5/8
#GOGOSTART
10040,
10040,
10040,//3
#MEASURE 2/4
#GOGOEND
500000000000000008000000,//4
#MEASURE 5/8
#GOGOSTART
10040,
10040,
10040,//7
#MEASURE 2/4
#GOGOEND
500000000000000008000000,//8
#MEASURE 5/8
#GOGOSTART
10040,
10040,
10040,//11
#MEASURE 2/4
#GOGOEND
500000000000000008000000,//12
#MEASURE 5/8
#GOGOSTART
10040,
10040,
10040,
#MEASURE 2/4
500000000000000008000000,
#MEASURE 4/4
10201021,
01211020,
10201021,
01211020,
30303003,
03033040,
30303003,
03033040,//24
#GOGOEND
10201120,
10210120,
10201120,
10210120,//28
#GOGOSTART
40404004,
04404030,
40404004,
04044030,//32
#GOGOEND
10201120,
10210120,
10201120,
10210120,//36
#GOGOSTART
40404004,
04044030,
40404004,
04044030,//40
#GOGOEND
10201120,
10201120,
10210120,
10201120,
7,
8022,
11220020,
11220020,
600000000000000000000000000008000000000000000000,
33030000,//50
#GOGOSTART
10211020,
11210020,
10211020,
11220011,
10211020,
11210020,
10211125,
000000000000000000000008000000000000200000200000,
10201022,
1212,
11220020,
11120020,
11120030,
4444,//64
#GOGOEND
30210120,
10210120,
10211120,
10211120,
10221120,
10221120,
7,
08,
10211120,
10221120,
10211120,
10221120,
7,
,
,
0008,
3,
10010000,
3,
11030000,
1111,
11010010,
10101015,
000000000000000008000000000000000000100000100000,
10101011,
1111,
11220010,
11120010,
11120020,
600000000000000000000000000000000008000000000000,//94
#GOGOSTART
10211020,
11210020,
10211020,
11220011,
10211020,
11210020,
10211125,
000000000000000008000000000000000000200000200000,
10201022,
1212,
11220020,
11120020,
11120030,
4444,//108
#MEASURE 5/8
30040,
10040,
10040,//111
#MEASURE 2/4
#GOGOEND
500000000000000008000000,//112
#MEASURE 5/8
#GOGOSTART
10040,
10040,
10040,//115
#MEASURE 2/4
#GOGOEND
500000000000000008000000,//116
#MEASURE 5/8
#GOGOSTART
10040,
10040,
10040,//119
#MEASURE 2/4
#GOGOEND
500000000000000008000000,//120
#MEASURE 5/8
#GOGOSTART
10040,
10040,
10040,//123
#MEASURE 2/4
#GOGOEND
500000000000000000000008,
#MEASURE 4/4
,
#END

COURSE:Normal
LEVEL:4
BALLOON:18,8,15,25
SCOREINIT:650
SCOREDIFF:200
#START
#MEASURE 5/8
#SCROLL 0.8
#GOGOSTART
00030,
00030,
00030,//3
#MEASURE 2/4
#GOGOEND
500000000000000000000008,//4
#MEASURE 5/8
#GOGOSTART
00030,
00030,
00030,//7
#MEASURE 2/4
#GOGOEND
500000000000000000000008,//8
#MEASURE 5/8
#GOGOSTART
00030,
00030,
00030,//11
#MEASURE 2/4
#GOGOEND
500000000000000000000008,//12
#MEASURE 5/8
#GOGOSTART
00030,
00030,
00090,
#MEASURE 2/4
,
#MEASURE 4/4
,
0900,
8,
,
30303003,
03004000,
30303003,
03004000,//24
#GOGOEND
1011,
20020020,
1011,
20020020,//28
#GOGOSTART
1150,
000000000000000000000000000000000008000000000000,
,
,//32
#GOGOEND
1011,
20020020,
1011,
20020020,//36
#GOGOSTART
1150,
000000000000000000000000000000000008000000000000,
,
0011,//40
#GOGOEND
1022,
2011,
20020020,
2,
7,
8011,
30030030,
30030030,
600000000000000000000000000008000000000000000000,
,//50
#GOGOSTART
1120,
11010000,
2220,
11010000,
1120,
11010000,
20202005,
000000000000000000000008000000000000000000000000,
11,
1120,
11010000,
22020000,
11010060,
000000000000000000000000000000000000000000000008,//64
#GOGOEND
,
,
11,
11,
1012,
1012,
7,
08,
1212,
1210,
1212,
1212,
7,
,
,
0008,
3,
10010000,
3,
10030000,
1110,
11010000,
10101005,
000000000000000008000000000000000000000000000000,
11,
1110,
11010000,
11010000,
11010000,
600000000000000000000000000000000008000000000000,//94
#GOGOSTART
1120,
11010000,
2220,
11010000,
1120,
11010000,
20202005,
000000000000000008000000000000000000000000000000,
11,
1120,
11010000,
22020000,
11010060,
000000000000000000000000000000000000000000000008,//108
#MEASURE 5/8
00030,
00030,
00030,//111
#MEASURE 2/4
#GOGOEND
500000000000000000000008,//112
#MEASURE 5/8
#GOGOSTART
00030,
00030,
00030,//115
#MEASURE 2/4
#GOGOEND
500000000000000000000008,//116
#MEASURE 5/8
#GOGOSTART
00030,
00030,
00030,//119
#MEASURE 2/4
#GOGOEND
500000000000000000000008,//120
#MEASURE 5/8
#GOGOSTART
00030,
00030,
00030,//123
#MEASURE 2/4
#GOGOEND
500000000000000000000008,
#MEASURE 4/4
,
#END

COURSE:Easy
LEVEL:3
BALLOON:14,6,8,20
SCOREINIT:610
SCOREDIFF:210
#START
#MEASURE 5/8
#SCROLL 0.8
#GOGOSTART
00030,
00030,
00030,//3
#MEASURE 2/4
#GOGOEND
,//4
#MEASURE 5/8
#GOGOSTART
00030,
00030,
00030,//7
#MEASURE 2/4
#GOGOEND
,//8
#MEASURE 5/8
#GOGOSTART
00030,
00030,
00030,//11
#MEASURE 2/4
#GOGOEND
,//12
#MEASURE 5/8
#GOGOSTART
00030,
00030,
00090,
#MEASURE 2/4
,
#MEASURE 4/4
,
0900,
8,
,
30003006,
000000000000000000000000000008000000000000000000,
30003006,
000000000000000000000000000008000000000000000000,//24
#GOGOEND
11,
1,
11,
1,//28
#GOGOSTART
5,
000000000000000000000000000000000008000000000000,
,
,//32
#GOGOEND
11,
1,
11,
1,//36
#GOGOSTART
5,
000000000000000000000000000000000008000000000000,
,
,//40
#GOGOEND
11,
11,
1,
2,
7,
8,
30030000,
30030000,
600000000000000000000000000008000000000000000000,
,//50
#GOGOSTART
11,
10010000,
11,
20020000,
11,
10010000,
20002005,
000000000000000000000008000000000000000000000000,
1,
11,
10010000,
20020000,
10010060,
000000000000000000000000000000000000000000000008,//64
#GOGOEND
,
,
1,
1,
11,
11,
7,
08,
11,
1110,
11,
1110,
7,
,
,
0008,
3,
10010000,
3,
10010000,
11,
10010000,
10001005,
000000000000000008000000000000000000000000000000,
1,
11,
10010000,
10010000,
10010000,
600000000000000000000000000008000000000000000000,//94
#GOGOSTART
11,
10010000,
11,
20020000,
11,
10010000,
20002005,
000000000000000008000000000000000000000000000000,
1,
11,
10010000,
20020000,
10010060,
000000000000000000000000000000000000000000000008,//108
#MEASURE 5/8
00030,
00030,
00030,//111
#MEASURE 2/4
#GOGOEND
,//112
#MEASURE 5/8
#GOGOSTART
00030,
00030,
00030,//115
#MEASURE 2/4
#GOGOEND
,//116
#MEASURE 5/8
#GOGOSTART
00030,
00030,
00030,//119
#MEASURE 2/4
#GOGOEND
,//120
#MEASURE 5/8
#GOGOSTART
00030,
00030,
00030,//123
#MEASURE 2/4
#GOGOEND
,
#MEASURE 4/4
,
#END
