//TJADB Project
TITLE:Puchipochi
TITLEJA:プチポチ
SUBTITLE:--Katsuro Tajima -Minute Waltz Rendition-
SUBTITLEJA:
BPM:140
WAVE:Puchipochi.ogg
OFFSET:-2.151
DEMOSTART:5.570 //Shinuchi:
4590/2710/1860/1130

COURSE:Oni
LEVEL:10
BALLOON:14
SCOREINIT:420,1140
SCOREDIFF:103
#START
500000000000000000000000000000000008000000000000,
1122000001020110, //2
100100100200100100100200100100100200101010201010,
102010101020101010201010100200100100100200100200,
100000000200100200200200100000101010200000200200,
1002122202112022, //6
100100100200100100100200100100100200100100201010,
102010101020101010201010200100101010200100101010,
200000200100200100100100200000202020100000101010,
2011212121112020, //10
100100100200100000200200100000002020100100100200,
100100100200100000200200100000002020100100200200,
100100100100200200200200101010200200100000200200,
100100100200100100100200102020100200100100100200, //14
1112111210012111,
2121221120221122,
1212112211112222,
1121221211212212, //18
1011202011221022,
1011202011212022,
1011221121212122,
100000100100200100200100100100200200100200102020, //22
1002111220021122,
100200000200100100200200100100200200101010200200,
1212102212121122,
1212112210000000, //26
#MEASURE 3/4
122122,
102122102121,
102122112121,
112121112121, //30
112222112222,
122210122210,
112120112120,
#MEASURE 9/8
100100201010200000100100201010200000200200100100100100, //34
#MEASURE 3/4
200111200100111200,
100000101010200100200000200100101010,
211122111120,
100000202020100000200100100100200100, //38
100211211200122122,
100211211200200222,
100100111200200100,
200000101010200100200000100000700000, //42
#BPMCHANGE 142
#SCROLL 0.98
000000080010,
#BPMCHANGE 144
#SCROLL 0.97
221221,
#BPMCHANGE 146
#SCROLL 0.96
200200100222222222, //45
#MEASURE 4/4
#BPMCHANGE 148
#SCROLL 1
#GOGOSTART
100100100200100100100200100100200020100100100200,
#BPMCHANGE 151
100100202020100100100200100100100200100100100200,
#BPMCHANGE 154
100000100200100200200200100000101010200100200000,
#BPMCHANGE 158
100000100000200200100200100000202020100100200200, //49
#BPMCHANGE 162
1112111211121112,
101010100200101010100200100100100100200200200200,
100200200100200100100100200000202020100000100000,
200000200200100200100200100000202020100100200100, //53
200000200000101010200000202020100000100000200200,
100100200200101010200000202020100200100000200200,
100100200200101010200000202020100200100000200200,
100100200200101010200000202020100200100100100200, //57
1010221120201122,
1122121211221122,
1212112211112222,
1112111212121211, //61
2020202011112222,
100100100100202010102020101020201010201020100200,
100000100100200000100000200100200100200100102020,
102020102020102010201020100100100200101010200100, //65
23000000,
#GOGOEND
0, //67
#END

COURSE:Hard
LEVEL:8
BALLOON:10
SCOREINIT:530,1880
SCOREDIFF:133
#START
500000000000000000000000000000000008000000000000,
1111000001020000,
1110111011105000,
000000000000000000000000000000000000000008000000,
1000201110102020,
1000201101102020,
1110111011101110,
500000000000000000000000000000000000000008000000,
1000201110102020,
1000201101102020,
1111102000002220,
1111102000002220,
1111111110000000,
1111111110000000,
1011111010111110,
1110111010111000,
1020111110201111,
11221122,
1010202011101011,
1010202011101011,
1010201110102011,
1010201110102011,
1001111110011111,
1010111110101110,
1010111110101110,
2020222220000000,
#MEASURE 3/4
122120,
122120,
122120,
122120,
122122,
122122,
122122,
#MEASURE 9/8
102020102020111110,
#MEASURE 3/4
102020102220,
122110,
222220102220,
102020102220,
102220102220,
102220101000,
102220102220,
101111201070,
#BPMCHANGE 142
#SCROLL 0.98
000000080010,
#BPMCHANGE 144
#SCROLL 0.97
221221,
#BPMCHANGE 146
#SCROLL 0.96
200000200000100000500000000008000000,//45
#MEASURE 4/4
#BPMCHANGE 148
#SCROLL 1
#GOGOSTART
1110111022201110,
#BPMCHANGE 151
2220111011101111,
#BPMCHANGE 154
1000222210102020,
#BPMCHANGE 158
1010222210102020,
#BPMCHANGE 162
1110111011101110,
1110111022202220,
1000111120102020,
1020111120102020,
1020111022201020,
1020111022221020,
1020111022201020,
1020111022221020,
1010222020201110,
1111102011111020,
1111202011112020,
1111111020202000,
2020202011102220,
500000000000000000000000000000000000000008000000,
1011201050000000,
000000000000000000000008000000000000100100200200,
13000000, //66
#GOGOEND
0,
#END

COURSE:Normal
LEVEL:7
BALLOON:7
SCOREINIT:590,2740
SCOREDIFF:163
#START
500000000000000000000000000000000008000000000000,
1010000001020000,
11101110,
500000000000000000000000000000000000000008000000,
10201120,
10201120,
11101110,
500000000000000000000000000000000000000008000000,
10201120,
10201120,
11120000,
11120000,
11111000,
11111000,
11101110,
11111120,
11111210,
11111120,
11221120,
11221220,
11221120,
11221220,
1001000010010000,
11221120,
11221220,
11222000,
#MEASURE 3/4
102120,
102120,
102120,
102120,
122120,
122120,
122120,
#MEASURE 9/8
122120111,
#MEASURE 3/4
122122,
122110,
222122,
122122,
122122,
122110,
122122,
111217,
#BPMCHANGE 142
#SCROLL 0.98
000000080010,
#BPMCHANGE 144
#SCROLL 0.97
221221,
#BPMCHANGE 146
#SCROLL 0.96
200000200000100000500000000008000000,//45
#MEASURE 4/4
#BPMCHANGE 148
#SCROLL 1
#GOGOSTART
11112222,
#BPMCHANGE 151
11221111,
#BPMCHANGE 154
10221122,
#BPMCHANGE 158
11221122,
#BPMCHANGE 162
11111111,
11112222,
10112122,
12111122,
12112210,
12112120,
12112210,
12112120,
11221122,
11121112,
11121122,
11112220,
22221122,
500000000000000000000000000000000000000008000000,
11215000,
000000000000000000000008000000000000100000200000,
13000000,//66
#GOGOEND
0,
#END

COURSE:Easy
LEVEL:5
BALLOON:15,17,5,15
SCOREINIT:560,5120
SCOREDIFF:170
#START
500000000000000000000000000008000000000000000000,
3000000002020000,
7,
0008,
1212,
1210,
7,
0008,
1212,
1212,
3300,
4400,
3340,
3340,
12,
1111,
2222,
500000000000000000000000000008000000000000000000,
10101110,
10102220,
10101110,
10102220,
34,
1122,
1212,
1220,
#MEASURE 3/4
11,
12,
11,
12,
11,
12,
11,
#MEASURE 9/8
500000000000000000000000000008000000000000000000000000,
#MEASURE 3/4
101100,
102200,
101100,
102200,
101100,
102200,
101101,
101107,
#BPMCHANGE 142
#SCROLL 0.98
000000080000,
#BPMCHANGE 144
#SCROLL 0.97
11,
#BPMCHANGE 146
#SCROLL 0.96
13, //45
#MEASURE 4/4
#BPMCHANGE 148
#SCROLL 1
#GOGOSTART
1122,
#BPMCHANGE 151
1211,
#BPMCHANGE 154
1212,
#BPMCHANGE 158
1212,
#BPMCHANGE 162
11101010,
11102020,
1122,
1112,
10101110,
10102220,
10101110,
10102220,
11002200,
11101110,
11101110,
11102220,
7,
0000000000000800,
11105000,
000000000000000000000000000008000000000000000000,
03000000,//66
#GOGOEND
0,
#END
