//TJADB Project
TITLE:Ikanai de Ikaros
TITLEJA:行かないでイカロス
SUBTITLE:--AJURIKA
SUBTITLEJA:AJURIKA
BPM:170
WAVE:Ikanai de Ikaros.ogg
OFFSET:-1.502
DEMOSTART:62.200

COURSE:Oni
LEVEL:9
BALLOON:2,2
SCOREINIT:480
SCOREDIFF:125
#START
00200200,
00200200,
00200222,
02220222,
,
1000201000202222,
0000102020102220,
1000201000222020,
0210102020102222,
1000201000202222,
0000102020102220,
1002201002201022,
0210102020102222,
1000201000202222,
0000102020102220,
1000201000222020,
0210102020102222,
1000201000202222,
0000102020102220,
1002201002201022,
1010201012202220,
30230230,
200000100000100000200000200200101010200000200000,
30230230,
2010202012202220,
30230230,
20001000100020002000100022002200,
30230230,
2010202012222222,
12121212,
12121212,
1020122010201220,
1020122010201220,
1020122210201222,
1020122210201222,
1220122212201222,
1220122212201222,
1210121212101212,
#BARLINEOFF
1210121212101212,
1210121212101212,
1210121212101212,
1111111111111111,
100100100100100100100100100100100100101010101010,
20202022,
#MEASURE 5/16
,
#BARLINEON
#MEASURE 1/16
#SCROLL 0.5
,
#SCROLL 0.64
,
#SCROLL 0.81
,
#SCROLL 1.04
,
#SCROLL 1.32
,
#SCROLL 1.69
,
#SCROLL 2.15
,
#SCROLL 2.74
,
#SCROLL 3.5
,
#SCROLL 4.46
#MEASURE 2/16
#BARLINEOFF
,
#MEASURE 4/4
#SCROLL 1
#GOGOSTART
#BARLINEON
1020112010210122,
1020112010211122,
1020112010210122,
100000200100200200100000100000
#SCROLL 2
400000
#SCROLL 5
600008000000,
#SCROLL 1.05
1020112010210122,
1020112010211122,
1020112210201122,
100000200100000200100000202020100000
#SCROLL 2.55
700000800000,
#SCROLL 1.1
1020112010210122,
1020112010211122,
1020112010210122,
100000200100200200100000100000
#SCROLL 2.1
400000
#SCROLL 5.1
600008000000,
#SCROLL 1.15
1020112010210122,
1020112010211122,
1020112210201122,
100000200100000200100000202020100000
#SCROLL 2.65
700000800000,
#SCROLL 1.2
1020112011210122,
1020112010211122,
1122112210211122,
100000200100200200100000100000
#SCROLL 2.2
400000
#SCROLL 5.2
600008000000,
#SCROLL 1.25
1020112011211122,
1122112211221122,
1121112211211122,
1121121000
#SCROLL 2.25
304030,//80
#GOGOEND
#END

COURSE:Hard
LEVEL:7
SCOREINIT:540
SCOREDIFF:140
#START
00200200,
00200200,
00200222,
02220222,
,
10210200,
00102100,
10210200,
0000100020102220,
10210200,
00102100,
10210200,
0000100020102220,
10210200,
00102100,
10210200,
0000100020102220,
10210200,
00102100,
10210210,
1020201022202000,
30030030,
2010102011102000,
30030030,
2010102022202020,
30030030,
#MEASURE 3/4
201010201110,
#BARLINEOFF
#MEASURE 1/6
#BPMCHANGE 113.33
#SCROLL 1.5
22,
#BARLINEON
#MEASURE 4/4
#BPMCHANGE 170
#SCROLL 1
30030030,
2010102022202220,
1111,
1111,
12101210,
12101210,
12121210,
12121210,
12121212,
12121212,
11121112,
#BARLINEOFF
11121112,
11121112,
11121112,
1010111010101110,
1010111011101110,
20202022,
#MEASURE 5/16
,
#BARLINEON
#MEASURE 1/16
#SCROLL 0.5
,
#SCROLL 0.65
,
#SCROLL 0.8
,
#SCROLL 0.9
,
#SCROLL 1
,
#SCROLL 1.1
,
#SCROLL 1.25
,
#SCROLL 1.5
,
#SCROLL 2
,
#SCROLL 2.5
#MEASURE 2/16
,//56
#MEASURE 4/4
#SCROLL 1
#GOGOSTART
1020100010201110,
12101211,
1020100010201110,
10111430,
#SCROLL 1.05
1020100010201110,
12101211,
1020100010201110,
1000111010204000,
#SCROLL 1.1
1020100010201110,
12101211,
1020100010201110,
10111430,
#SCROLL 1.15
1020100010201110,
12101211,
1020100010201110,
1000111010204000,
#SCROLL 1.2
1020100010201110,
12121211,
1020100010201110,
12111430,
#SCROLL 1.25
1020100010201110,
12121211,
1020111010201110,
10030343,//80
#BARLINEOFF
#GOGOEND
,
#END

COURSE:Normal
LEVEL:5
#START
,
,
,
,
,
10010000,
00102100,
10010000,
00102100,
10010000,
00102100,
10010000,
00102100,
10010000,
00102100,
10010000,
00102100,
10010000,
00102100,
5,
000000000008000000000000000000000000000000000000,
30030030,
02,
30030030,
02,
30030030,
#MEASURE 3/4
002,
#BARLINEOFF
#MEASURE 1/6
#BPMCHANGE 113.33
#SCROLL 1.5
,
#BARLINEON
#MEASURE 4/4
#BPMCHANGE 170
#SCROLL 1
30030030,
04,
1111,
1112,
1111,
1112,
1111,
1112,
1111,
1112,
3333,
#BARLINEOFF
3334,
3333,
3334,
6,
000000000000000000000000000000000000000000000008,
,
#MEASURE 5/16
,
#BARLINEON
#MEASURE 1/16
#SCROLL 0.5
,
#SCROLL 0.65
,
#SCROLL 0.8
,
#SCROLL 0.9
,
#SCROLL 1
,
#SCROLL 1.1
,
#SCROLL 1.25
,
#SCROLL 1.5
,
#SCROLL 2
,
#SCROLL 2.5
#MEASURE 2/16
,//56
#MEASURE 4/4
#SCROLL 1
#GOGOSTART
10101110,
1111,
10101110,
2220,
#SCROLL 1.05
10101110,
1111,
11102020,
500000000000000000000000000008000000000000000000,
#SCROLL 1.1
10101110,
1111,
10101110,
2220,
#SCROLL 1.15
10101110,
1111,
11102020,
500000000000000000000000000008000000000000000000,
#SCROLL 1.2
10101110,
10101110,
10101110,
2220,
#SCROLL 1.25
10101110,
10101110,
11102020,
10030303,//80
#BARLINEOFF
#GOGOEND
,
#END

COURSE:Easy
LEVEL:3
#START
,
,
,
,
,
10010000,
0100,
10010000,
0100,
10010000,
0100,
10010000,
0100,
10010000,
0100,
10010000,
0100,
10010000,
0100,
5,
000000000008000000000000000000000000000000000000,
30030030,
,
30030030,
,
30030030,
#MEASURE 3/4
,
#BARLINEOFF
#MEASURE 1/6
#BPMCHANGE 113.33
#SCROLL 1.5
,
#BARLINEON
#MEASURE 4/4
#BPMCHANGE 170
#SCROLL 1
30030030,
,
1111,
1110,
1111,
1110,
1111,
1110,
1111,
1111,
5,
#BARLINEOFF
,
,
000000000000000000000000000000000000000008000000,
6,
000000000000000000000000000000000000000000000008,
,
#MEASURE 5/16
,
#BARLINEON
#MEASURE 1/16
#SCROLL 0.5
,
#SCROLL 0.65
,
#SCROLL 0.8
,
#SCROLL 0.9
,
#SCROLL 1
,
#SCROLL 1.1
,
#SCROLL 1.25
,
#SCROLL 1.5
,
#SCROLL 2
,
#SCROLL 2.5
#MEASURE 2/16
,//56
#MEASURE 4/4
#SCROLL 1
#GOGOSTART
1110,
1110,
1110,
2220,
#SCROLL 1.05
1110,
1110,
2222,
500000000000000000000000000008000000000000000000,
#SCROLL 1.1
1110,
1110,
1110,
2220,
#SCROLL 1.15
1110,
1110,
2222,
500000000000000000000000000008000000000000000000,
#SCROLL 1.2
1111,
1110,
1111,
2220,
#SCROLL 1.25
1111,
1111,
2222,
20030303,//80
#BARLINEOFF
#GOGOEND
,
#END
