//TJADB Project
TITLE:Maou no Showtime
TITLEJA:マオウのショウタイム
SUBTITLE:--Takafumi Sato
BPM:180
WAVE:Maou no Showtime.ogg
OFFSET:-2.101
DEMOSTART:57.306

COURSE:Oni
LEVEL:9
BALLOON:12,3
SCOREINIT:360
SCOREDIFF:85
#START
,
,
,
1111,
1111,
12121212,
1020102010222222,
1010201110201020,
1010201110112020,
1010201110201020,
11213333,
1010201110201020,
1010201110112020,
1010201011112220,
0020102011112000,//15
#GOGOSTART
1020112010201220,
1020112010221120,
1020112010201220,
1020112210202212,
1020112010201220,
1020112010221120,
1020112010201220,
7008,//23
#GOGOEND
10210122,
1011201110112010,
33030003,
3030003000222222,
10210121,
2011201110112010,
1110202211112010,
22114433,
,
,
1020102220102011,
1020102220102212,
1020102220102011,
1020102220112222,
1020102212201022,
1020102212202212,
1022002200220022,
2211221111221122,
#MEASURE 2/4
,//42
#MEASURE 4/4
#GOGOSTART
1010221010102210,
2011201022111020,
0020101011222020,
0020101022111222,
1022102110111011,
1011201220222022,
2021101110112010,
1122121211221122,//50
#GOGOEND
,
#BPMCHANGE 120
#SCROLL 0.75
12102120,
12102120,
100200100000
200010002000,
121212,
#BPMCHANGE 180
#SCROLL 1
1020112010201220,
#SCROLL 1.1
1020112010221120,
#BPMCHANGE 185
#SCROLL 1.2
1020112010201220,
#BPMCHANGE 190
#SCROLL 1.3
1020112010221010,
#SCROLL 1.4
7000008000222222,
#BPMCHANGE 195
#SCROLL 1.5
1020112010201220,
#SCROLL 1.6
1020112010221120,
#BPMCHANGE 200
#SCROLL 1.7
1122112211221122,
#SCROLL 1.8
600000000000000000000000000000000008000000000000,
#SCROLL 1
10102012,
0020002020001122,
10102012,
0020001010221122,
10102012,
0020002020001122,
10102012,
0020001010221122,//72
#GOGOSTART
10210122,
1011201110112010,
33030003,
3030003000222222,
10210121,
2011201110112010,
1110202211112010,
22114433,//80
#BPMCHANGE 180
#GOGOEND
,
,
#MEASURE 2/4
,
#MEASURE 4/4
#GOGOSTART
1010221010102210,
2011201022111020,
0020101011222020,
0020101022111222,
1022102110111011,
1011201220222022,
2021101110112010,
500000000000000000000000000000000008000000000000,
#BPMCHANGE 185
#SCROLL 1.3
1010221010102210,
#BPMCHANGE 187
2011201022111020,
#BPMCHANGE 189
0020101011222020,
#BPMCHANGE 191
0020101022111222,
#BPMCHANGE 193
1022102110111011,
#BPMCHANGE 195
1011201220222022,
#BPMCHANGE 197
2021101110112010,
#BPMCHANGE 199
500000000000000000000000000000000008000000000000,
#SCROLL 1.5
#BPMCHANGE 201
43,
#BPMCHANGE 204
2011201022111020,
#BPMCHANGE 207
0020101011222020,
#BPMCHANGE 210
0020101022111222,
#BPMCHANGE 213
1022102110111011,
#BPMCHANGE 216
1011201220222022,
#BPMCHANGE 219
2021101110112010,
#BPMCHANGE 222
1122121211221122,//107
#GOGOEND
#BPMCHANGE 180
#END

COURSE:Hard
LEVEL:7
BALLOON:9,3
#START
,
,
,
1111,
1111,
1111,
1000100010111111,
10201212,
10201122,
10201212,
10203333,
10201212,
10201122,
1000200011102220,
02021110,//15
#GOGOSTART
1010101110101011,
1010101110101000,
1010101110101011,
1010101110102000,
2020202220202022,
2020202220202000,
2020202220202022,
7008,//23
#GOGOEND
10210120,
11210120,
500000000000000000000000000008000000000000500000,
000000000000000000000000000008000000000000000000,
10210120,
11210120,
1000201010111000,
22223333,
,
,
10202121,
10201222,
10202121,
10201222,
12101210,
12101222,
1022002200220022,
500000000000000000000000000000000000000000000008,
#MEASURE 2/4
,//42
#MEASURE 4/4
#GOGOSTART
11211121,
2020101000111020,
0020101000111020,
02110112,
1000100010111000,
1000102000201011,
1000200010112000,
200000000000200000200000000000500000000000000008,//50
#GOGOEND
,
#BPMCHANGE 120
#SCROLL 0.8
12102120,
12102120,
100200100000200010002000,
121212,
#BPMCHANGE 180
#SCROLL 1
1020102010111000,
#SCROLL 1.1
1020102010222000,
#BPMCHANGE 185
#SCROLL 1.2
1020102010111000,
#BPMCHANGE 190
#SCROLL 1.3
1020102010111010,
#SCROLL 1.4
70080000,
#BPMCHANGE 195
#SCROLL 1.5
1020102010111000,
#SCROLL 1.6
1020102010222000,
#BPMCHANGE 200
#SCROLL 1.7
1020102010111000,
#SCROLL 1.8
600000000000000000000000000000000008000000000000,
#SCROLL 1
1101,
00022020,
1102,
00011000,
1101,
00022020,
1102,
00011000,//72
#GOGOSTART
10210120,
11210120,
500000000000000000000000000008000000000000500000,
000000000000000000000000000008000000000000000000,
10210120,
11210120,
1000201010111000,
22223333,//80
#BPMCHANGE 180
#GOGOEND
,
,
#MEASURE 2/4
,//83
#MEASURE 4/4
#GOGOSTART
11211121,
2020101000111020,
0020101000111020,
02110112,
1000100010111000,
1000102000201011,
1000200010112000,
500000000000000000000000000000000008000000000000,
#BPMCHANGE 185
#SCROLL 1.3
11211121,
#BPMCHANGE 187
2020101000111020,
#BPMCHANGE 189
0020101000111020,
#BPMCHANGE 191
02110112,
#BPMCHANGE 193
1000100010111000,
#BPMCHANGE 195
1000102000201011,
#BPMCHANGE 198
1000200010112000,
#BPMCHANGE 200
500000000000000000000000000000000008000000000000,
#SCROLL 1.5
#BPMCHANGE 202
43,
#BPMCHANGE 204
2020101000111020,
#BPMCHANGE 206
0020101000111020,
#BPMCHANGE 208
02110112,
#BPMCHANGE 211
1000100010111000,
#BPMCHANGE 214
1000102000201011,
#BPMCHANGE 217
1000200010112000,
#BPMCHANGE 220
5000000000000000000000000000000000000000000000008,//107
#GOGOEND
#BPMCHANGE 180
,
,
,
,
,
,
#END

COURSE:Normal
LEVEL:6
BALLOON:6,3
#START
,
,
,
1111,
1110,
1111,
1110,
1112,
1110,
1112,
10103330,
1112,
1110,
1112,
500000000000000000000000000008000000000000000000,//15
#GOGOSTART
11101110,
11101010,
11101110,
11101000,
22202220,
22202020,
22202220,
7008,//23
#GOGOEND
10110110,
10110110,
500000000000000000000000000008000000000000500000,
000000000000000000000000000008000000000000000000,
20220220,
20220220,
10101110,
30303333,
,
,
1212,
10201110,
1212,
10202220,
1212,
10201110,
1212,
500000000000000000000000000000000000000000000008,
#MEASURE 2/4
,//42
#MEASURE 4/4
#GOGOSTART
11101110,
11110111,
02220003,
02220111,
1122,
10110110,
1122,
100000000000100000100000000000500000000000000008,//50
#GOGOEND
,
#BPMCHANGE 120
#SCROLL 0.8
11102220,
11102220,
11102220,
11102220,
#BPMCHANGE 180
#SCROLL 1
3330,
#SCROLL 1.1
3330,
#BPMCHANGE 185
#SCROLL 1.2
3330,
#BPMCHANGE 190
#SCROLL 1.3
3337,
#SCROLL 1.4
70080000,
#BPMCHANGE 195
#SCROLL 1.5
3340,
#SCROLL 1.6
3430,
#BPMCHANGE 200
#SCROLL 1.7
3434,
#SCROLL 1.8
600000000000000000000000000000000008000000000000,
#SCROLL 1
1101,
00022000,
1102,
00011000,
1101,
00022000,
1102,
00011000,
#GOGOSTART
10110110,
10110110,
500000000000000000000000000008000000000000500000,
000000000000000000000000000008000000000000000000,
20220220,
20220220,
10101110,
30303333,//80
#BPMCHANGE 180
#GOGOEND
,
,
#MEASURE 2/4
,//83
#MEASURE 4/4
#GOGOSTART
11101110,
11110111,
02220003,
02220111,
1122,
10110111,
1122,
500000000000000000000000000000000008000000000000,
#BPMCHANGE 185
#SCROLL 1.3
11101110,
#BPMCHANGE 187
11110111,
#BPMCHANGE 189
02220003,
#BPMCHANGE 191
02220111,
#BPMCHANGE 193
1122,
#BPMCHANGE 195
10110111,
#BPMCHANGE 198
1122,
#BPMCHANGE 200
500000000000000000000000000000000008000000000000,
#SCROLL 1.5
#BPMCHANGE 202
43,
#BPMCHANGE 204
11110111,
#BPMCHANGE 206
02220003,
#BPMCHANGE 208
02220111,
#BPMCHANGE 211
1122,
#BPMCHANGE 214
10110111,
#BPMCHANGE 217
1122,
#BPMCHANGE 220
5000000000000000000000000000000000000000000000008,//107
#GOGOEND
#BPMCHANGE 180
,
,
,
,
,
,
#END

COURSE:Easy
LEVEL:4
BALLOON:5,3
#START
,
,
,
11,
11,
11,
11,
1110,
1110,
11,
3330,
1110,
1110,
11,
500000000000000000000000000008000000000000000000,//15
#GOGOSTART
1111,
1110,
1111,
1110,
2222,
2220,
2222,
7008,//23
#GOGOEND
10110000,
10110000,
500000000000000000000000000008000000000000500000,
000000000000000000000000000008000000000000000000,
20220000,
20220000,
1111,
3333,
,
,
11,
2022,
11,
2022,
1111,
2220,
1111,
500000000000000000000000000000000000000000000008,
#MEASURE 2/4
,//42
#MEASURE 4/4
#GOGOSTART
1111,
10101003,
00030003,
00030000,
1111,
1110,
1011,
100000000000100000100000000000500000000000000008,//50
#GOGOEND
,
#BPMCHANGE 120
#SCROLL 0.8
1122,
1122,
1122,
1122,
#BPMCHANGE 180
#SCROLL 1
3300,
#SCROLL 1.1
3300,
#BPMCHANGE 185
#SCROLL 1.2
4400,
#BPMCHANGE 190
#SCROLL 1.3
4407,
#SCROLL 1.4
70080000,
#BPMCHANGE 195
#SCROLL 1.5
3330,
#SCROLL 1.6
4440,
#BPMCHANGE 200
#SCROLL 1.7
3434,
#SCROLL 1.8
600000000000000000000000000000000008000000000000,
#SCROLL 1
1101,
00011000,
1101,
00011000,
1101,
00011000,
1101,
00011000,//72
#GOGOSTART
10110000,
10110000,
500000000000000000000000000008000000000000500000,
000000000000000000000000000008000000000000000000,
20220000,
20220000,
1111,
3333,//80
#BPMCHANGE 180
#GOGOEND
,
,
#MEASURE 2/4
,//83
#MEASURE 4/4
#GOGOSTART
1111,
10101003,
00030003,
00030000,
1111,
1110,
1011,
500000000000000000000000000000000008000000000000,
#BPMCHANGE 185
#SCROLL 1.3
1111,
#BPMCHANGE 187
10101003,
#BPMCHANGE 189
00030003,
#BPMCHANGE 191
00030000,
#BPMCHANGE 193
1111,
#BPMCHANGE 195
1110,
#BPMCHANGE 198
1011,
#BPMCHANGE 200
500000000000000000000000000000000008000000000000,
#SCROLL 1.5
#BPMCHANGE 202
43,
#BPMCHANGE 204
10101003,
#BPMCHANGE 206
00030003,
#BPMCHANGE 208
00030000,
#BPMCHANGE 211
1111,
#BPMCHANGE 214
1110,
#BPMCHANGE 217
1011,//252combo
#BPMCHANGE 220
5000000000000000000000000000000000000000000000008,//107
#GOGOEND
#BPMCHANGE 180
,
,
,
,
,
,
#END
