//TJADB Project
TITLE:Surf Zapping
TITLEJA:Surf Zapping
SUBTITLE:--t+pazolite/Synchronica
SUBTITLEJA:t+pazolite 「シンクロニカ」より
BPM:100
WAVE:Surf Zapping.ogg
OFFSET:-2.496
DEMOSTART:98.497 //shinuchi:
4950/3250/1830/1130

COURSE:Oni
LEVEL:10
BALLOON:5,5
SCOREINIT:420,1190
SCOREDIFF:105
#START
11211020,
1010202221010010,
11211021,
500000000000000008000000
#SCROLL 2
200200200200200200300000, //4
#BPMCHANGE 200
#SCROLL 1
1000201020100011,
2212,
10212102,
0020202010221000, //8
3000201020100011,
22201021,
12011012,
0020001011102000, //12
#SCROLL 0.7
1000202020200022,
2222,
10111101,
000000100000100000100000100000000000
#SCROLL 4
500000000008, //16
#SCROLL 1
0001202010210210,
1221201020120120,
1010101012121210,
21212030, //20
#MEASURE 8/4
#SCROLL 0.7
1221102102112130,
102020101000221010202010
#GOGOSTART
#SCROLL 1.25
40304000, //22
#MEASURE 4/4
1022102012212220,
1022122210212020,
1022102212212210,
#GOGOEND
#SCROLL 1
1000202011104000, //26
#MEASURE 8/4
#SCROLL 0.7
1221102102212130,
102020101000221010202010
#GOGOSTART
#SCROLL 1.25
40304000, //28
#MEASURE 4/4
1022102012212220,
1022122210212020,
1022102212212210,
#GOGOEND
#SCROLL 0.9
10223040, //32
#SCROLL 1
1000201020102210,
1020102011222000,
1000201020102210,
100000000100000000100000700000000000000000080000, //36
10212121,
12221111,
1000201020221020,
111100202020100000400000, //40
2,
20002022,
2000000010221010,
2000100011102000, //44
1022101012221010,
100020002000100020002000100200100100100000200000,
1010221012111010,
100200100200101010100000000000100000400000000000, //48
#SCROLL 0.5
10200120,
#SCROLL 0.6
10200120,
#SCROLL 0.7
10200120,
#SCROLL 0.8
10210121, //52
#SCROLL 0.9
2011201120112011,
#SCROLL 1
2011201111212011,
#SCROLL 1.1
2011201121212121,
22222220
#SCROLL 1.25
#GOGOSTART
40403000, //56
1022102012212220,
1022122210210210,
1022102212212210,
3334, //60
1022102012212220,
1022122210210210,
1022102212212220,
#GOGOEND
3000202011104000, //64
#GOGOSTART
1022102012212220,
1022122210210210,
1022102212212210,
3334, //68
1022102012212220,
1022122210210210,
1022102212212220,
#GOGOEND
#SCROLL 0.9
10221040, //72
#SCROLL 1
1000201120102011,
200000200100200000100000100000101010200000000000,
1000201120101120,
000200200200100222100200, //76
1000201120102011,
2110201122112210,
11032013,
000000300000000000100000700000000000000000080000, //80
1011201120102011,
200000100200200000100100100000101010200000000000,
1011201122202120,
000000200000200100200000200000202020200000200000, //84
1111201120102210,
2122101012202000,
3000202020221010,
222100222100222100400000, //88
1111201120102212,
2112201122221011,
2122211221222112,
1212121210004000, //92
0,
0,
0, //95
#END

COURSE:Hard
LEVEL:7
BALLOON:2,3
SCOREINIT:490,2010
SCOREDIFF:128
#START
1212,
11201020,
11211020,
500000000000000008000000
#SCROLL 2
200200200200200000300000, //4
#BPMCHANGE 200
#SCROLL 1
10010000,
2222,
10010002,
02222020,
3202,
1202,
10200021,
01012100, //12
#SCROLL 0.7
22,
2222,
10001001,
000000100000100000100000100000000000
#SCROLL 4
500000000008,
#SCROLL 1
00212101,
2211,
11111111,
2223, //20
#MEASURE 8/4
#SCROLL 0.7
1001200100102030,
100120010010
#SCROLL 1.25
#GOGOSTART
4340,
#MEASURE 4/4
12121110,
12121110,
12122220,
#GOGOEND
#SCROLL 1
10221040, //26
#MEASURE 8/4
#SCROLL 0.7
1001200100102030,
100120010010
#SCROLL 1.25
#GOGOSTART
4340,
#MEASURE 4/4
12121110,
12121110,
12122220,
#GOGOEND
#SCROLL 0.9
1234, //32
#SCROLL 1
11210202,
11212020,
11210202,
100000000100000000100000700000000000000000080000,
11210202,
12221110,
10222022,
500000000000000000000008000000000000400000000000, //40
2,
22,
2,
22,
1121,
222222200100,
10201120,
100000100000100000700000000000000000080000000000, //48
#SCROLL 0.5
10200120,
#SCROLL 0.6
10200120,
#SCROLL 0.7
10200120,
#SCROLL 0.8
10210120,
#SCROLL 0.9
21212121,
#SCROLL 1
21212121,
#SCROLL 1.1
11112222,
2222
#SCROLL 1.25
#GOGOSTART
4030, //56
12121110,
1020102030030030,
12121110,
3334,
12121110,
1020102030030030,
12122222,
#GOGOEND
10221040, //64
#GOGOSTART
12121110,
1020102030030030,
12121110,
3334,
12121110,
1020102030030030,
12122220,
#GOGOEND
#SCROLL 0.9
10221040, //72
#SCROLL 1
1000201020100011,
10201120,
10212102,
02221010,
1000201020100011,
10201120,
11012003,
03011120, //80
1000201020100011,
10201120,
10212102,
02222022,
1000201020100011,
10201120,
30212020,
21212040, //88
1000201020100022,
2222,
11112222,
12121040,
0,
0,
0, //95
#END

COURSE:Normal
LEVEL:6
BALLOON:12,5,5
SCOREINIT:670,3550
SCOREDIFF:195
#START
11,
1110,
22,
700000000000000000000000
#SCROLL 2
000000000000080000000000, //4
#BPMCHANGE 200
#SCROLL 1
1,
2220,
1,
2220,
1202,
0202,
1202,
0202, //12
#SCROLL 0.7
1,
1,
11,
1,
#SCROLL 1
1111,
1111,
11101110,
500000000000000000000008000000000000000000000000, //20
#MEASURE 8/4
#SCROLL 0.7
1212,
121
#SCROLL 1.25
#GOGOSTART
4,
#MEASURE 4/4
10201110,
10201110,
10201110,
#GOGOEND
#SCROLL 1
13, //26
#MEASURE 8/4
#SCROLL 0.7
1212,
121
#SCROLL 1.25
#GOGOSTART
4,
#MEASURE 4/4
10201110,
10201110,
10201110,
#GOGOEND
#SCROLL 0.9
13, //32
#SCROLL 1
10200202,
1120,
10200202,
7008,
10200202,
1111,
12,
500000000000000000000008000000000000000000000000, //40
2,
22,
2,
22,
1210,
1212,
5,
000000000000000000000008000000000000000000000000, //48
#SCROLL 0.5
11,
#SCROLL 0.6
11,
#SCROLL 0.7
11,
#SCROLL 0.8
11,
#SCROLL 0.9
1111,
#SCROLL 1
1111,
#SCROLL 1.1
500000000000000000000000000000000008000000000000,
600000000000000000000008
#SCROLL 1.25
#GOGOSTART
000000000000000000000000, //56
10201110,
1140,
10201110,
3330,
10201110,
1140,
10201110,
#GOGOEND
7008, //64
#GOGOSTART
10201110,
1140,
10201110,
3330,
10201110,
1140,
10201110,
#GOGOEND
#SCROLL 0.9
1, //72
#SCROLL 1
1111,
1110,
1111,
2220,
1111,
2222,
10002003,
03003000, //80
1111,
1110,
1111,
2220,
1111,
11111000,
3,
22222040, //88
10101011,
1111,
11111110,
2224,
0,
0,
0, //95
#END

COURSE:Easy
LEVEL:4
BALLOON:8,4,3
SCOREINIT:570,5240
SCOREDIFF:185
#START
11,
1,
22,
700000000000000000000000000000000000080000000000, //4
#BPMCHANGE 200
1,
22,
1,
22,
1,
1,
1,
1, //12
#SCROLL 0.7
2,
22,
1,
22,
#SCROLL 1
11,
11,
1111,
500000000000000000000008000000000000000000000000, //20
#MEASURE 8/4
#SCROLL 0.7
1210,
121
#SCROLL 1.1
#GOGOSTART
0,
#MEASURE 4/4
1110,
1110,
2220,
#GOGOEND
#SCROLL 1
03, //26
#MEASURE 8/4
#SCROLL 0.7
1210,
121
#SCROLL 1.1
#GOGOSTART
0,
#MEASURE 4/4
1110,
1110,
2220,
#GOGOEND
#SCROLL 0.9
03, //32
#SCROLL 1
11,
1110,
11,
7008,
11,
2220,
2,
500000000000000000000008000000000000000000000000, //40
1,
1,
11,
1,
12,
12,
5,
000000000000000000000008000000000000000000000000, //48
#SCROLL 0.5
1,
#SCROLL 0.6
1,
#SCROLL 0.7
1,
#SCROLL 0.8
1,
#SCROLL 0.9
11,
#SCROLL 1
11,
500000000000000000000000000000000008000000000000,
600000000000000000000008
#SCROLL 1.1
#GOGOSTART
000000000000000000000000, //56
1110,
1110,
1111,
3,
1110,
1110,
2222,
#GOGOEND
7008, //64
#GOGOSTART
1110,
1110,
1111,
3,
1110,
1110,
2222,
#GOGOEND
#SCROLL 0.9
1, //72
#SCROLL 1
11,
1110,
22,
2220,
1110,
2220,
11,
2240, //80
11,
1110,
22,
2220,
1111,
1110,
3,
2220, //88
11,
1111,
1111,
2224,
0,
0,
0, //95
#END
