//TJADB Project
TITLE:Seiten no Reimei
TITLEJA:青天の黎明
SUBTITLE:--steμ feat. siroa
SUBTITLEJA:steμ feat.siroa
BPM:222
WAVE:Seiten no Reimei.ogg
OFFSET:-1.246
DEMOSTART:68.380

COURSE:Oni
LEVEL:10
BALLOON:5,4,3,2,9,51
SCOREINIT:330
SCOREDIFF:70
#START
#BARLINEOFF
#MEASURE 2/4
00000022,
#BARLINEON
#MEASURE 7/8
10001020001022,
10001020001022,
10001020001022,
10001022104000,
10011010011000,
10011010011000,
10011010221020,
1017008,
100100100200100100200010001000200000000000,
#GOGOSTART
30001010221020,
10012010221000,
40001010221020,
10012010221000,
500000000000000000000008000000100000200000,
10012011201000,
3333012,
10012011102000,
#MEASURE 3/4
600008000000300000300000000000700000,
#MEASURE 7/8
00800040004022,
#MEASURE 3/4
100120102210,
#MEASURE 7/8
10012011201000,
#MEASURE 3/4
301111,
#MEASURE 7/8
10211010221111,
#MEASURE 4/4
10210120,
000000000000100000100000100000100200200010000000,
#GOGOEND
#MEASURE 13/16
#BPMCHANGE 166.5
#SCROLL 1.33
1221000122102,
#MEASURE 7/8
100200200100000100200100200200102020100000,
#MEASURE 13/16
1121020112122,
#MEASURE 15/16
100100200100000100100200000003000000030000000,
#MEASURE 7/8
300000000000011200000,
#MEASURE 13/16
1102022110202,
#MEASURE 7/8
11020121102020,
#MEASURE 13/16
100100000200000202020100000200000200000,
#MEASURE 15/16
100100000200000200200101010000300000000000000,
#MEASURE 13/16
1102120110202,
#MEASURE 7/8
11020221100302,
#MEASURE 13/16
1102012102022,
#MEASURE 7/16
1201220,
#MEASURE 3/4
111222111222,
#MEASURE 13/16
1121203000000,
#MEASURE 7/8
10221202122010,
22120121012202,
10221202122010,
22110102222010,
10210101012010,
20210120210120,
22212102221210,
202020200100200100000300000200101010200200,
#MEASURE 13/16
1012210100200,
#MEASURE 7/8
10012021012020,
#MEASURE 13/16
1012210100220,
#MEASURE 15/16
100000000100200200100500000008000000
#SCROLL 1
200000000,
#MEASURE 13/16
#SCROLL 1.33
1011010300300,
#MEASURE 7/8
20022004000022,
#MEASURE 13/16
1001200300202,
#MEASURE 7/8
10122012021220,
#MEASURE 3/4
111222111222,
#MEASURE 4/4
#BPMCHANGE 222
#SCROLL 1
1110222011102220,
111000222000111000222000,
3333,
#MEASURE 9/8
500000080000000000600000080000000000700000080000000000,
#GOGOSTART
#MEASURE 7/8
30021010201002,
10102011102000,
30011010201001,
10102011201000,
10021010201002,
100100200101010200000,
30303030211020,
100010001000100000200100100000200000000000,
#MEASURE 3/4
122122,
#MEASURE 7/8
10222010112210,
#MEASURE 3/4
201010201110,
#MEASURE 7/8
20121120202020,
#GOGOEND
#MEASURE 3/4
300022200020,
#MEASURE 7/8
20221020221020,
#MEASURE 3/4
300010202210,
#MEASURE 7/8
12102012203000,
#MEASURE 3/4
330330,
#MEASURE 7/8
3033030,
3303303,
3033333,
2022020,
2022000,
2022020,
2022030,
10011010011010,
10011010011010,
10021010021020,
30222030221022,
#GOGOSTART
000000000300000000202020002000100000007000,
000080000100200000100100100200100000200000,
11121011221020,
30012011221020,
12221012221020,
600000000000000000000008000000100100100100,
11022222201020,
12121210202210,
11122210112000,
#MEASURE 3/4
200000100000200200100000200000101010,
#MEASURE 7/8
10122211122211,
#MEASURE 3/4
100000200000100100200000100000202020,
#MEASURE 7/8
20112211221122,
#MEASURE 3/4
101212121212,
#MEASURE 7/8
12121211111220,
#MEASURE 4/4
3002203002203000,
000220100100100010001000,
#GOGOEND
#MEASURE 7/8
10012010001022,
10001020211010,
20111010201000,
10201010112022,
10212010201220,
12101020101012,
20121010201110,
12201121121222,
2,
#GOGOSTART
102020200100200200100200200200100100200200,
#GOGOEND
1,
#GOGOSTART
101010100200200200100200200100100200100100,
#GOGOEND
1,
#GOGOSTART
100020102000100200100200100200100200101010,
#GOGOEND
1000022,
3037000,
800000000000200200100010101000100020002000,
#MEASURE 13/16
#BPMCHANGE 166.5
#SCROLL 1.33
1121222112101,
#MEASURE 7/8
100100200100200100200100100200101020200000,
#MEASURE 13/16
100100200102020100000100100200102020100,
#MEASURE 4/4
100100200101010200200100000000300000000300000000,
7,
0000000000008022,
2,
#END

COURSE:Hard
LEVEL:7
BALLOON:11,9,11,15,8,8,9,9,11,11,30,30
SCOREINIT:490
SCOREDIFF:120
#START
#BARLINEOFF
#MEASURE 2/4
,
#BARLINEON
#MEASURE 7/8
1002020,
1002020,
1002020,
1002020,
3001010,
3001010,
3001010,
2027000,
0000000000000800,//10
#GOGOSTART
1021010,
2021000,
1021010,
2022000,
500000000000000000000008000000000000000000,
1021010,
2027000,
0000800,
#MEASURE 3/4
101101,
#MEASURE 7/8
1011020,
#MEASURE 3/4
101101,
#MEASURE 7/8
1011020,
#MEASURE 3/4
7,
#MEASURE 7/8
0000080,
#MEASURE 4/4
10110110,
,//26
#MEASURE 13/16
#BPMCHANGE 166.5
#SCROLL 1.33
#GOGOEND
9,
#MEASURE 7/8
0090000,
#MEASURE 13/16
8,
#MEASURE 15/16
000000000000000000000300000003000000030000000,
#MEASURE 7/8
3,
#MEASURE 13/16
1000020200000,
#MEASURE 7/8
10000202000000,
#MEASURE 13/16
1000010102020,
#MEASURE 15/16
500000000000008000000100100000300000000000000,
#MEASURE 13/16
1100020200000,
#MEASURE 7/8
70000000000800,
#MEASURE 13/16
1100010102020,
#MEASURE 7/16
3,
#MEASURE 3/4
5,
#MEASURE 13/16
000000000008000000300000000000000000000,
#MEASURE 7/8
10110101000000,
500000000000000000000008000000000000000000,
10110101002020,
500000000000000000000008000000000000000000,
10110101003030,
30040040040040,
7000008,
33,
#MEASURE 13/16
1011010100200,
#MEASURE 7/8
10022010000000,
#MEASURE 13/16
1011010100200,
#MEASURE 15/16
100000000200200000000500000008000000000000000,
#MEASURE 13/16
#SCROLL 1.33
1011010100200,
#MEASURE 7/8
10022001000000,
#MEASURE 13/16
1002200100000,
#MEASURE 7/8
10022022001010,
#MEASURE 3/4
5,
#MEASURE 4/4
#BPMCHANGE 222
#SCROLL 1
000000000000000000000000000000000008000000000000,
3333,
3333,
#MEASURE 9/8
700000080,//62
#MEASURE 7/8
#GOGOSTART
3012010,
1011000,
3012010,
1022000,
500000000000000000000008000000000000000000,
1012010,
1017000,
0008000,
#MEASURE 3/4
101101,
#MEASURE 7/8
1012220,
#MEASURE 3/4
101101,
#MEASURE 7/8
1021110,//74
#MEASURE 3/4
#GOGOEND
5,
#MEASURE 7/8
000000000000000000000000008000000000000000,
#MEASURE 3/4
,
#MEASURE 7/8
,
#MEASURE 3/4
330330,
#MEASURE 7/8
3033030,
3303303,
3033330,
2,
,
2,
,
1011011,
10001110000000,
1011011,
10001110000000,//90
#GOGOSTART
,
3011012,
10001110000000,
3011012,
10002220000000,
600000000000000000000008000000100000200000,
10001110001020,
1017000,
0000800,
#MEASURE 3/4
100010100011,
#MEASURE 7/8
1012220,
#MEASURE 3/4
100010100011,
#MEASURE 7/8
1012220,
#MEASURE 3/4
7,
#MEASURE 7/8
0000800,
#MEASURE 4/4
10110110,
000000100100100010001000,//107
#MEASURE 7/8
#GOGOEND
7,
,
8,
0000020,
1121012,
1012010,
2011210,
10201110003000,
4,//116
#GOGOSTART
10111010101000,//117
#GOGOEND
4,//118
#GOGOSTART
10111010111000,//119
#GOGOEND
4,//120
#GOGOSTART
101010100100100100000,//121
#GOGOEND
2000022,
3039000,
,
#MEASURE 13/16
#BPMCHANGE 166.5
#SCROLL 1.33
,
#MEASURE 7/8
9,
#MEASURE 13/16
8,
#MEASURE 4/4
0002220100300300,
6,
000000000000000000000000000000000000000000000008,
,
#END

COURSE:Normal
LEVEL:6
BALLOON:9,5,7,9,5,7,33,5,5,7,19,18
#START
#MEASURE 2/4
#BARLINEOFF
,
#MEASURE 7/8
#BARLINEON
1,
1,
1,
1,
3,
3,
3,
7,
0000008,//10
#GOGOSTART
1001010,
1011000,
1001010,
1011000,
500000000000000000000008000000000000000000,
1001010,
1017000,
0000800,
#MEASURE 3/4
11,
#MEASURE 7/8
1004000,
#MEASURE 3/4
11,
#MEASURE 7/8
1004000,
#MEASURE 3/4
7,
#MEASURE 7/8
0000800,
#MEASURE 4/4
10010010,
,//26
#MEASURE 13/16
#BPMCHANGE 166.5
#SCROLL 1.33
#GOGOEND
9,
#MEASURE 7/8
09,
#MEASURE 13/16
8,
#MEASURE 15/16
,
#MEASURE 7/8
,
#MEASURE 13/16
1,
#MEASURE 7/8
1,
#MEASURE 13/16
1000000202020,
#MEASURE 15/16
500000000000008000000000300000000000000000000,
#MEASURE 13/16
12,
#MEASURE 7/8
7000080,
#MEASURE 13/16
1000000202020,
#MEASURE 7/16
2,
#MEASURE 3/4
5,
#MEASURE 13/16
000000000008000000300000000000000000000,
#MEASURE 7/8
12,
1,
12,
1,
33,
3,
7,
8,
#MEASURE 13/16
1000000200000,
#MEASURE 7/8
500000000000000008000000000000000000000000,
#MEASURE 13/16
1000000200000,
#MEASURE 15/16
500000000000000008000000000000000000000000000,
#MEASURE 13/16
#SCROLL 1.33
1000000200000,
#MEASURE 7/8
500000000000000008000000000000000000000000,
#MEASURE 13/16
600000000000000008000000000000000000000,
#MEASURE 7/8
7,
#MEASURE 3/4
,
#MEASURE 4/4
#BPMCHANGE 222
#SCROLL 1
8,
,
,
#MEASURE 9/8
,//62
#MEASURE 7/8
#GOGOSTART
3001010,
1011000,
3001010,
1011000,
500000000000000000000008000000000000000000,
1001010,
1017000,
08,
#MEASURE 3/4
11,
#MEASURE 7/8
14,
#MEASURE 3/4
11,
#MEASURE 7/8
14,//74
#MEASURE 3/4
#GOGOEND
5,
#MEASURE 7/8
000000000000000000000000008000000000000000,
#MEASURE 3/4
,
#MEASURE 7/8
,
#MEASURE 3/4
33,
#MEASURE 7/8
3,
3003003,
3,
2,
,
2,
,
1011000,
1011000,
1011010,
1011000,//90
#GOGOSTART
,
3011010,
1011000,
3011010,
1011000,
600000000000000000000008000000000000000000,
1011010,
1017000,
0000800,
#MEASURE 3/4
33,
#MEASURE 7/8
3003030,
#MEASURE 3/4
33,
#MEASURE 7/8
3003030,
#MEASURE 3/4
7,
#MEASURE 7/8
0000800,
#MEASURE 4/4
10010010,
,//107
#MEASURE 7/8
#GOGOEND
7,
,
8,
,
1011,
1022,
1011,
3,
4,//116
#GOGOSTART
1111010,//117
#GOGOEND
4,//118
#GOGOSTART
1111010,//119
#GOGOEND
4,//120
#GOGOSTART
1111010,//121
#GOGOEND
2,
3009000,
,
#MEASURE 13/16
#BPMCHANGE 166.5
#SCROLL 1.33
,
#MEASURE 7/8
9,
#MEASURE 13/16
8,
#MEASURE 4/4
0001010100300300,
6,
000000000000000000000000000000000000000000000008,
,
#END

COURSE:Easy
LEVEL:3
BALLOON:6,5,8,2,3,10,5,26,12,13,3,3,3,16
#START
#MEASURE 2/4
#SCROLL 0.5
#BARLINEOFF
,
#MEASURE 7/8
#BARLINEON
,
,
,
,
1,
,
1,
7,
00000000000800,//10
#GOGOSTART
3,
1001000,
3,
1001000,
5,
000000000000000000000000000008000000000000,
3,
,
#MEASURE 3/4
22,
#MEASURE 7/8
2,
#MEASURE 3/4
22,
#MEASURE 7/8
2,
#MEASURE 3/4
7,
#MEASURE 7/8
0000080,
#MEASURE 4/4
10010010,
,//26
#MEASURE 13/16
#BPMCHANGE 166.5
#SCROLL 0.66
#GOGOEND
9,
#MEASURE 7/8
09,
#MEASURE 13/16
8,
#MEASURE 15/16
,
#MEASURE 7/8
,
#MEASURE 13/16
1,
#MEASURE 7/8
1,
#MEASURE 13/16
1000000100000,
#MEASURE 15/16
700080000000000,
#MEASURE 13/16
1,
#MEASURE 7/8
70000000000800,
#MEASURE 13/16
1000000100000,
#MEASURE 7/16
7,
#MEASURE 3/4
,
#MEASURE 13/16
0000800000000,
#MEASURE 7/8
22,
2,
22,
2,
33,
3,
7,
8,
#MEASURE 13/16
1000000200000,
#MEASURE 7/8
500000000000000008000000000000000000000000,
#MEASURE 13/16
1000000200000,
#MEASURE 15/16
500000000000000008000000000000000000000000000,
#MEASURE 13/16
1000000200000,
#MEASURE 7/8
500000000000000008000000000000000000000000,
#MEASURE 13/16
600000000000000008000000000000000000000,
#MEASURE 7/8
7,
#MEASURE 3/4
,
#MEASURE 4/4
#BPMCHANGE 222
#SCROLL 0.5
8,
,
,
#MEASURE 9/8
,//62
#MEASURE 7/8
#GOGOSTART
3,
1001000,
3,
1001000,
5,
000000000000000000000000000008000000000000,
3,
,
#MEASURE 3/4
22,
#MEASURE 7/8
2,
#MEASURE 3/4
22,
#MEASURE 7/8
2,//74
#MEASURE 3/4
#GOGOEND
5,
#MEASURE 7/8
000000000000000000000000008000000000000000,
#MEASURE 3/4
,
#MEASURE 7/8
,
#MEASURE 3/4
33,
#MEASURE 7/8
3,
3003003,
,
2,
,
2,
,
2,
2,
2,
4,//90
#GOGOSTART
,
3,
1001000,
3,
1001000,
6,
000000000000000000000000000008000000000000,
3003000,
,
#MEASURE 3/4
9,
#MEASURE 7/8
,
#MEASURE 3/4
090000,
#MEASURE 7/8
8,
#MEASURE 3/4
,
#MEASURE 7/8
,
#MEASURE 4/4
10010010,
,//107
#MEASURE 7/8
#GOGOEND
7,
,
8,
,
3,
3,
3,
3,
4,//116
#GOGOSTART
7000080,//117
#GOGOEND
4,//118
#GOGOSTART
7000080,//119
#GOGOEND
4,//120
#GOGOSTART
7000080,//121
#GOGOEND
2,
3009000,
,
#MEASURE 13/16
#BPMCHANGE 166.5
#SCROLL 0.66
,
#MEASURE 7/8
9,
#MEASURE 13/16
8,
#MEASURE 4/4
0001010100300300,
6,
000000000000000000000000000000000000000000000008,
,
#END
