//TJADB Project
TITLE:Toon Town’s Toys’ Tune
TITLEJA:Toon Town's Toys' Tune
SUBTITLE:--Retropolitaliens feat. Dadako
SUBTITLEJA:Retropolitaliens
BPM:136
WAVE:Toon Towns Toys Tune.ogg
OFFSET:-3.426
DEMOSTART:40.684

COURSE:Oni
LEVEL:10
BALLOON:3,3,10,10,10,25
SCOREINIT:520
SCOREDIFF:123
#START
#BARLINEOFF
#MEASURE 1/8
2222,
#BARLINEON
#MEASURE 4/4
20100022201020001010002010111000,
#SCROLL 2
1020102101201220,
100200100000000000002000100000100000200000001000100000100000000100200000100000100000100000000000,
10002000100020100010200011102000,
100200100000000000002000100000100000200000001000100000200000000100100000500000000000000008000000,
0040111010201010,
100000200100100000200100000200000200101010100100,
100000202020100000200100100000202020100000200000,
100010001000100000000000100010001000200000100000200020000000300000000000600000000008000000000000,
20002220200010102000200010201000,
2202221211111111,
100000201010100000200100100000201010100000200000,
3020301141104000,
22202020222020222020202020202000,
3030443434334000,
200200200000100000100000200200200000100000200000000000200000200020002000200000200000100000000000,
100000002000100000100000200000100000000000200200200000100000100000000000400000000000200200200000,
1110101120202000,
100000100000200000200000100000000100200000101010,
100100202020100200102020100000100100202020100000,
70000800700008007000000000000800,
#GOGOSTART
3020102111201010,
100000001000100000000000300000000000300000300000000000200000100000000000100000100100100000000000,
100020100000101010200100000100200000200000200000,
32323230,
#GOGOEND
2000
#GOGOSTART
302102102010,
100000000000100000002000100000000000400000300000000000200000100000200000100000100100100000000000,
100020100000100000200100000200101010200000200000,
33333000,
#GOGOEND
1020102101201220,
100200100000000000002000100000100000200000001000100000100000000100200000100000100000100000000000,
10002000102020100011200011102000,
100200100000000000001000100000100000100000100000100000000000200000000000200000000000200000000000,
1000200020220222,
2020202020220222,
100000000000200000000000100000100100202020202020,
11114444,
10002010100020101110201000202020,
10002010100020101110102000201210,
200020002000100000001000200000200000100100100100200000200000000000200000000000000000300000000000,
7000000870000008,
#GOGOSTART
7000000000000008,
100200100000000000002000100000100000200000001000100000100000000100200000100000100000100000000000,
1020202200202020,
333
#GOGOEND
0,
10002000100020100010200011102000,
100100100000200000200000100000000000200000100000000000100100200000100000200020002000100000000000,
101010200200101010200100200100200100200200200200,
22224000,
#GOGOSTART
300000200020100000200100100100200000100100100200,
100010001000100000002000100000000000400000300000000000200200100000000000100000100100100000000000,
102020100000102020100100000100102020100000200000,
32323230,
#GOGOEND
2
#GOGOSTART
3
#GOGOEND
2
#GOGOSTART
3,
100200100000000000002000100000100000200000001000100000100000000100100000100100100100100000200000,
100000200200101010200100000100202020200200200000,
33333000,
#GOGOEND
#SCROLL 1
1010222222222220,
#GOGOSTART
#SCROLL 2
33333000,
#MEASURE 1/8
#BPMCHANGE 8.5
#SCROLL 32
,
#MEASURE 4/4
#BPMCHANGE 136
#SCROLL 3
3030303030
#GOGOEND
000000,
#END

COURSE:Hard
LEVEL:6
BALLOON:27,13,27,31
SCOREINIT:580
SCOREDIFF:150
#START
#BARLINEOFF
#MEASURE 1/8
,
#BARLINEON
#MEASURE 4/4
1022201110202220,
9,
09,
8,
,
0040111020202020,
2000000000102220,
12121210,
100000000000100000000000000000300000600008000000,
0040111020202020,
2000000000102220,
12121210,
3344,
500000000000000000000000000000000000000008000000,
1010111111104000,
500000000000000000000000000000000000000008000000,
100010100000200200000100000100100000400000000000,
1110101110101000,
22222000,
1110101110101000,
7008,//22
#GOGOSTART
1020101110101000,
2020202100102220,
1020101100202020,
3333,//26
#GOGOEND
0000//27
#GOGOSTART
301110101000,
2020202100102220,
1020101100202020,
33333000,//30
#GOGOEND
9,
09,
8,
00000222,
2000200020220000,
2020202020220000,
2000200020220010,
10102222,
1020102010110000,
1020102010220000,
2020222022020000,
33,//42
#GOGOSTART
7,
0008,
2020202200202020,
333//46
#GOGOEND
0,
12101110,
2020202100102220,
1010101111111110,
22224000,//50
#GOGOSTART
1020102101201020,
1020102101201020,
1020102101201020,
3333,//54
#GOGOEND
0//55-1
#GOGOSTART
4//55-2
#GOGOEND
0//55-3
#GOGOSTART
4,
500000000000000000000000000000000008000000000000,
1020102101201020,
33333000,//58
#GOGOEND
1020202200202020,//59
#GOGOSTART
33333000,
#BPMCHANGE 8
#MEASURE 2/17
#SCROLL 17
,
#BPMCHANGE 136
#SCROLL 1
#MEASURE 4/4
3333
#GOGOEND
3000,//62
,
#END

COURSE:Normal
LEVEL:5
BALLOON:14,6,14,19
#START
#BARLINEOFF
#MEASURE 1/8
,
#BARLINEON
#MEASURE 4/4
,
9,
09,
8,
,
2022,
20000111,
1111,
500000000000000008000000000000100000100000000000,
2022,
20000111,
1111,
3333,
500000000000000000000000000000000000000000000008,
,
500000000000000000000000000000000000000000000008,
,
11102020,
11101000,
11102220,
7008,//22
#GOGOSTART
12101110,
12110000,
11110220,
3333,//26
#GOGOEND
00//27
#GOGOSTART
301110,
12110000,
11110220,
33333000,//30
#GOGOEND
9,
09,
8,
,
2220,
22222000,
2220,
2,
1110,
11111000,
2,
33,//42
#GOGOSTART
7,
0008,
22220220,
333//46
#GOGOEND
0,
12101110,
12110000,
11110220,
11113000,//50
#GOGOSTART
12101210,
12110000,
12110220,
3333,//54
#GOGOEND
0//55-1
#GOGOSTART
4//55-2
#GOGOEND
0//55-3
#GOGOSTART
4,
500000000000000000000000000000000008000000000000,
12110220,
33333000,//58
#GOGOEND
12220220,//59
#GOGOSTART
33333000,
#BPMCHANGE 8
#MEASURE 2/17
#SCROLL 17
,
#BPMCHANGE 136
#SCROLL 1
#MEASURE 4/4
3333
#GOGOEND
3000,//62
,
#END

COURSE:Easy
LEVEL:4
BALLOON:12,5,12,15
#START
#BARLINEOFF
#MEASURE 1/8
,
#BARLINEON
#MEASURE 4/4
,
9,
09,
8,
,
2022,
2,
1011,
1,
2022,
2,
11,
1111,
500000000000000000000000000000000000000000000008,
,
500000000000000000000000000000000000000000000008,
,
12,
1110,
12,
7008,//22
#GOGOSTART
1111,
10110000,
20220000,
3333,//26
#GOGOEND
0//27
#GOGOSTART
111,
10110000,
20220000,
11103000,//30
#GOGOEND
9,
09,
8,
,
22,
2220,
22,
2,
11,
1110,
2,
33,//42
#GOGOSTART
7,
0008,
20220000,
333//46
#GOGOEND
0,
1111,
10110000,
20220000,
11103000,//50
#GOGOSTART
1212,
10110000,
10110000,
3333,//54
#GOGOEND
0//55-1
#GOGOSTART
4//55-2
#GOGOEND
0//55-3
#GOGOSTART
4,
500000000000000000000000000000000008000000000000,
10110000,
11103000,//58
#GOGOEND
,//59
#GOGOSTART
11103000,
#BPMCHANGE 8
#MEASURE 2/17
#SCROLL 17
,
#BPMCHANGE 136
#SCROLL 1
#MEASURE 4/4
1110
#GOGOEND
3000,//62
,
#END
